Vítejte na stránkách . Klikněte zde pro registraci

Uživatelské jméno:   Heslo:   Pamätat si ma  Skrýt můj online stav 
Registrovat    Přihlásit se    Fórum    Hledat    FAQ
Bannery     Kontakt   


Informační Panel

:welcome:




www.centralwar.eu
www.centralwar.eu

Obsah fóra » Filmy download » CZ/SK dubbing




Odeslat nové téma Odpovědět na téma  [ Příspěvků: 2 ] 
Autor Zpráva
 Předmět příspěvku: Osamělý jezdec / Lone Ranger, The (2013)
 Příspěvek Napsal: 14 črc 2013, 23:17 
Offline
Registrovaní uživatelé

Registrován: 17 úno 2013, 20:54
ID Užívateľa: 62829

Online: 4d 14h 47m 57s
Poďakoval: 0 x
Obdržal: 4 x


Částka:
30,097.35



Karma: 0


Osamělý jezdec / Lone Ranger, The (2013)
Žáner: Western / Akční / Dobrodružný / Komedie
Zvuk: CZ
Titulky: -

Obrázek

The.Lone.Ranger.2013.TS.XViD.UNiQUE.CZ

Pouze Registrovaní uživatelé mohou prohlížet odkazy v tagu code! Registrujte se anebo se Přihlašte na fórum.


Pouze Registrovaní uživatelé mohou prohlížet odkazy v tagu code! Registrujte se anebo se Přihlašte na fórum.


Obrázek
SÚBOR V ZLOŽKE
Pouze Registrovaní uživatelé mohou prohlížet odkazy v tagu code! Registrujte se anebo se Přihlašte na fórum.


Naposledy upravil draha dne 09 čer 2015, 18:09, celkově upraveno 2
vymazány mrtvé linky


Nahoru 
 Profil  
 
 Předmět příspěvku: Osamělý jezdec / Lone Ranger, The (2013)
 Příspěvek Napsal: 07 zář 2018, 13:24 
Offline
Registrovaní uživatelé

Registrován: 27 led 2016, 20:28
ID Užívateľa: 65951

Online: 7d 22h 55m 1s
Poďakoval: 0 x
Obdržal: 0 x


Částka:
2,708.85



Karma: 0


Osamělý jezdec / The Lone Ranger (2013)
Video/Zdroj: DVDRip
Audio: CZ 2ch

Obrázek

CSFD / IMDB
Pouze Registrovaní uživatelé mohou prohlížet odkazy v tagu code! Registrujte se anebo se Přihlašte na fórum.


INFO
Citace:
Format : AVI
File size : 1.15 GiB
Duration : 2h 25mn
Overall bit rate : 1 135 Kbps

Video
Format : MPEG-4 Visual
Format profile : Advanced Simple@L5
Codec ID/Hint : XviD
Duration : 2h 25mn
Bit rate : 992 Kbps
Width : 640 pixels
Height : 272 pixels
Display aspect ratio : 2.35:1
Frame rate : 25.000 fps
Color space : YUV
Chroma subsampling : 4:2:0
Bit depth : 8 bits
Scan type : Progressive
Compression mode : Lossy
Bits/(Pixel*Frame) : 0.228
Stream size : 1.01 GiB (87%)

Audio
Format : MPEG Audio
Codec ID/Hint : MP3
Duration : 2h 25mn
Bit rate mode : Constant
Bit rate : 128 Kbps
Channel(s) : 2 channels
Sampling rate : 44.1 KHz
Compression mode : Lossy
Delay relative to video : 40ms
Stream size : 133 MiB (11%)
Alignment : Aligned on interleaves
Interleave, duration : 26 ms (0.65 video frame)
Interleave, preload duratio : 522 ms


Fastshare
Pouze Registrovaní uživatelé mohou prohlížet odkazy v tagu code! Registrujte se anebo se Přihlašte na fórum.


Nahoru 
 Profil  
 
Zobrazit příspěvky za předchozí:  Seřadit podle  
 
Odeslat nové téma Odpovědět na téma  [ Příspěvků: 2 ] 

Obsah fóra » Filmy download » CZ/SK dubbing


 
Nemůžete zakládat nová témata v tomto fóru
Nemůžete odpovídat v tomto fóru
Nemůžete upravovat své příspěvky v tomto fóru
Nemůžete mazat své příspěvky v tomto fóru
Nemůžete přikládat soubory v tomto fóru

Hledat:
Přejít na:  







TOPlist
Český překlad – phpBB.cz
Karma functions powered by Karma MOD © 2007, 2009 m157y
phpBB SEO



..:: Žádný ze zobrazených souborů, které můžete nalézt na tomto fóru, nejsou umístěny na tomto serveru. Autoři stránky nenesou zodpovědnost za příspěvky odeslané užívateli,ani za jejich další akce,které by mohli vést k porušování zákonů. Za své příspěvky zodpovídají uživatelé. Nepoužívejte tyto stránky k distribuci a nebo k downloadu jakýchkoliv materiálů, ke kterým nemáte legální oprávnění a nebo licenci ::..