Vítejte na stránkách . Klikněte zde pro registraci

Uživatelské jméno:   Heslo:   Pamätat si ma  Skrýt můj online stav 
Registrovat    Přihlásit se    Fórum    Hledat    FAQ
Bannery     Kontakt   


Informační Panel

:welcome:




www.centralwar.eu
www.centralwar.eu

Obsah fóra » Filmy download » CZ/SK dubbing




Odeslat nové téma Odpovědět na téma  [ Příspěvek: 1 ] 
Autor Zpráva
 Předmět příspěvku: Policajt v Beverly Hills / Beverly Hills Cop (1984)
 Příspěvek Napsal: 09 srp 2018, 14:55 
Offline
Registrovaní uživatelé

Registrován: 04 pro 2015, 22:42
ID Užívateľa: 65833

Online: 8d 4h 51m 39s
Poďakoval: 0 x
Obdržal: 1 x


Částka:
3,499.45



Karma: 0


Policajt v Beverly Hills 1 (1984 CZdab)

Obrázek
Obrázek

info

Pouze Registrovaní uživatelé mohou prohlížet odkazy v tagu code! Registrujte se anebo se Přihlašte na fórum.


Citace:
Černošský detektiv Axel Foley představuje pro svého šéfa skutečnou "noční můru", protože každou akci řeší po svém, a přitom často bez ostychu překračuje zavedené předpisy. Když se čirou náhodu stane svědkem vraždy svého přítele Mikea, zabrání mu policejní šéf Todd vměšovat se do řešení případu. V tu chvíli se Axel vydává na vlastní triko z Detroitu do Beverly Hills hledat pachatele...(oficiální text distributora)


kvalita

Citace:
General
Complete name : E:\Policajt v Beverly Hills 1 (1984 CZdab)..avi
Format : AVI
Format/Info : Audio Video Interleave
File size : 698 MiB
Duration : 1h 40mn
Overall bit rate : 974 Kbps
Movie name : Policajt_z_Bev_Hils_1.DVDRip
Director : Stanley_v
Writing application : Lavf51.19.0
Original source form/Name : Policajt_z_Bev_Hils_1

Video
ID : 0
Format : MPEG-4 Visual
Format profile : Simple@L3
Format settings, BVOP : No
Format settings, QPel : No
Format settings, GMC : No warppoints
Format settings, Matrix : Default (H.263)
Codec ID : XVID
Codec ID/Hint : XviD
Duration : 1h 40mn
Bit rate : 771 Kbps
Width : 656 pixels
Height : 368 pixels
Display aspect ratio : 16:9
Frame rate : 25.000 fps
Color space : YUV
Chroma subsampling : 4:2:0
Bit depth : 8 bits
Scan type : Progressive
Compression mode : Lossy
Bits/(Pixel*Frame) : 0.128
Stream size : 552 MiB (79%)
Writing library : XviD 1.1.2 (UTC 2006-11-01)

Audio
ID : 1
Format : AC-3
Format/Info : Audio Coding 3
Mode extension : CM (complete main)
Format settings, Endianness : Big
Codec ID : 2000
Duration : 1h 40mn
Bit rate mode : Constant
Bit rate : 192 Kbps
Channel(s) : 2 channels
Channel positions : Front: L R
Sampling rate : 48.0 KHz
Compression mode : Lossy
Stream size : 138 MiB (20%)
Alignment : Aligned on interleaves
Interleave, duration : 32 ms (0.80 video frame)
Interleave, preload duratio : 32 ms


download

Pouze Registrovaní uživatelé mohou prohlížet odkazy v tagu code! Registrujte se anebo se Přihlašte na fórum.


Naposledy upravil Stanley dne 09 srp 2018, 20:54, celkově upraveno 1
Přidána ikonka serveru


Nahoru 
 Profil  
 
Zobrazit příspěvky za předchozí:  Seřadit podle  
 
Odeslat nové téma Odpovědět na téma  [ Příspěvek: 1 ] 

Obsah fóra » Filmy download » CZ/SK dubbing


 
Nemůžete zakládat nová témata v tomto fóru
Nemůžete odpovídat v tomto fóru
Nemůžete upravovat své příspěvky v tomto fóru
Nemůžete mazat své příspěvky v tomto fóru
Nemůžete přikládat soubory v tomto fóru

Hledat:
Přejít na:  







TOPlist
Český překlad – phpBB.cz
Karma functions powered by Karma MOD © 2007, 2009 m157y
phpBB SEO



..:: Žádný ze zobrazených souborů, které můžete nalézt na tomto fóru, nejsou umístěny na tomto serveru. Autoři stránky nenesou zodpovědnost za příspěvky odeslané užívateli,ani za jejich další akce,které by mohli vést k porušování zákonů. Za své příspěvky zodpovídají uživatelé. Nepoužívejte tyto stránky k distribuci a nebo k downloadu jakýchkoliv materiálů, ke kterým nemáte legální oprávnění a nebo licenci ::..