Vítejte na stránkách . Klikněte zde pro registraci

Uživatelské jméno:   Heslo:   Pamätat si ma  Skrýt můj online stav 
Registrovat    Přihlásit se    Fórum    Hledat    FAQ
Bannery     Kontakt   


Informační Panel

:welcome:




www.centralwar.eu
www.centralwar.eu

Obsah fóra » Filmy download » CZ/SK dubbing




Odeslat nové téma Odpovědět na téma  [ Příspěvek: 1 ] 
Autor Zpráva
 Předmět příspěvku: Rychle a zběsile 2 / 2 Fast 2 Furious (2003)
 Příspěvek Napsal: 20 kvě 2018, 19:41 
Offline
Registrovaní uživatelé

Registrován: 04 pro 2015, 22:42
ID Užívateľa: 65833

Online: 8d 4h 51m 39s
Poďakoval: 0 x
Obdržal: 1 x


Částka:
3,499.45



Karma: 0


rychle a zbesile-west koust 2.dil

Obrázek

info

Pouze Registrovaní uživatelé mohou prohlížet odkazy v tagu code! Registrujte se anebo se Přihlašte na fórum.


Citace:
Volné pokračování úspěšného filmu, v němž hlavní roli hrála supersilná auta a nelegální uliční závody ve speciálně upravených vozech, nás tentokrát zavede do Miami. Někdejší policista Brian O'Connor při vyšetřování svého posledního případu selhal. On sám se sice cítí jako oběť, ale zároveň si je vědom, že za svůj prohřešek musí platit. Proto opustil Los Angeles a nový případ chápe jako svoji poslední šanci. Hlavním podezřelým je tentokrát bohatý obchodník, který s největší pravděpodobností, pod rouškou vývozních a dovozních aktivit, pere špinavé peníze pro jakýsi mezinárodní kartel. Víc než rok už je sledován celníky i policií, ale jediným výsledkem je poznání, že Carter Verone má živé styky s organizátory adrenalinových automobilových závodů. Vše je tedy na Brianovi, který už nemá co ztratit.

Úspěch filmu Rychle a zběsile byl natolik přesvědčivý, že krátce po premiéře už se začalo jednat o dalším pokračování. Rychlá auta, to je svět sám o sobě, a hazardní nepovolené závody magnetem pro diváky. Režisér John Singleton, který za kamerou tentokrát vystřídal Roba Cohena, v podstatě kráčí ve stopách svého předchůdce, ale jak zdůraznil v řadě rozhovorů, snažil se o maximální autenticitu prostředí a výrazné prokreslení charakterů lidí, kteří podlehli nebezpečnému kouzlu rychlých kol. Patří k nim i on sám, jak se přiznal. Připomeňme, že jeho jménem je podepsán akční kriminální příběh černošského detektiva Drsnej Shaft.(oficiální text distributora)


kvalita

Citace:
General
Complete name : D:\up1\rychle a zbesile-west koust 2.dil.3gp
Format : MPEG-4
Format profile : 3GPP Media Release 4
Codec ID : 3gp4
File size : 2.10 MiB
Duration : 2mn 1s
Overall bit rate mode : Constant
Overall bit rate : 144 Kbps
Movie name : rychle_a_zběsile_parodie
Encoded date : UTC 1970-01-01 01:00:00
Tagged date : UTC 1970-01-01 01:00:00
Writing application : FFmpeg0.4.9-pre1-based-MobileHackerz030b4621
Comment : QuickTime 6.0 or greater

Video
ID : 1
Format : MPEG-4 Visual
Format profile : Simple@L3
Format settings, BVOP : No
Format settings, QPel : No
Format settings, GMC : No warppoints
Format settings, Matrix : Default (H.263)
Codec ID : 20
Duration : 2mn 1s
Bit rate mode : Constant
Bit rate : 128 Kbps
Width : 176 pixels
Height : 144 pixels
Display aspect ratio : 1.222
Frame rate mode : Constant
Frame rate : 14.985 fps
Color space : YUV
Chroma subsampling : 4:2:0
Bit depth : 8 bits
Scan type : Progressive
Compression mode : Lossy
Bits/(Pixel*Frame) : 0.337
Stream size : 1.87 MiB (89%)
Writing library : XviD 1.1.0 Beta2 (UTC 2005-04-04)
Language : English
Encoded date : UTC 1970-01-01 01:00:00
Tagged date : UTC 1970-01-01 01:00:00

Audio
ID : 2
Format : AMR
Format/Info : Adaptive Multi-Rate
Format profile : Narrow band
Codec ID : samr
Duration : 2mn 1s
Bit rate mode : Constant
Bit rate : 12.8 Kbps
Channel(s) : 1 channel
Sampling rate : 8 000 Hz
Bit depth : 13 bits
Stream size : 191 KiB (9%)
Writing library : Apple Revision 1
Language : English
Encoded date : UTC 1970-01-01 01:00:00
Tagged date : UTC 1970-01-01 01:00:00


download

Pouze Registrovaní uživatelé mohou prohlížet odkazy v tagu code! Registrujte se anebo se Přihlašte na fórum.


rychle-a-zbesile-2-by-www.svet-jar.ic.cz[1]

Obrázek

kvalita

[quote]General
Complete name : D:\up1\rychle-a-zbesile-2-by-www.svet-jar.ic.cz[1].3gp
File size : 15.3 KiB
/quote]

download

Pouze Registrovaní uživatelé mohou prohlížet odkazy v tagu code! Registrujte se anebo se Přihlašte na fórum.


rychle-a-zbesile-4[2]

Pouze Registrovaní uživatelé mohou prohlížet odkazy v tagu code! Registrujte se anebo se Přihlašte na fórum.


rychle-a-zbesile-2-cz-dabing

Pouze Registrovaní uživatelé mohou prohlížet odkazy v tagu code! Registrujte se anebo se Přihlašte na fórum.


Naposledy upravil warup dne 21 kvě 2018, 21:44, celkově upraveno 3

Nahoru 
 Profil  
 
Zobrazit příspěvky za předchozí:  Seřadit podle  
 
Odeslat nové téma Odpovědět na téma  [ Příspěvek: 1 ] 

Obsah fóra » Filmy download » CZ/SK dubbing


 
Nemůžete zakládat nová témata v tomto fóru
Nemůžete odpovídat v tomto fóru
Nemůžete upravovat své příspěvky v tomto fóru
Nemůžete mazat své příspěvky v tomto fóru
Nemůžete přikládat soubory v tomto fóru

Hledat:
Přejít na:  







cron
TOPlist
Český překlad – phpBB.cz
Karma functions powered by Karma MOD © 2007, 2009 m157y
phpBB SEO



..:: Žádný ze zobrazených souborů, které můžete nalézt na tomto fóru, nejsou umístěny na tomto serveru. Autoři stránky nenesou zodpovědnost za příspěvky odeslané užívateli,ani za jejich další akce,které by mohli vést k porušování zákonů. Za své příspěvky zodpovídají uživatelé. Nepoužívejte tyto stránky k distribuci a nebo k downloadu jakýchkoliv materiálů, ke kterým nemáte legální oprávnění a nebo licenci ::..