Vítejte na stránkách . Klikněte zde pro registraci

Uživatelské jméno:   Heslo:   Pamätat si ma  Skrýt můj online stav 
Registrovat    Přihlásit se    Fórum    Hledat    FAQ
Bannery     Kontakt   


Informační Panel

:welcome:




www.centralwar.eu
www.centralwar.eu

Obsah fóra » Filmy download » CZ/SK dubbing




Odeslat nové téma Odpovědět na téma  [ Příspěvek: 1 ] 
Autor Zpráva
 Předmět příspěvku: Policajt ze San Francisca / Metro (1997)
 Příspěvek Napsal: 08 srp 2018, 22:16 
Offline
Registrovaní uživatelé

Registrován: 04 pro 2015, 22:42
ID Užívateľa: 65833

Online: 8d 2h 38m 12s
Poďakoval: 0 x
Obdržal: 1 x


Částka:
3,419.45



Karma: 0


Policajt ze San Francisca

Obrázek
Obrázek

info

Pouze Registrovaní uživatelé mohou prohlížet odkazy v tagu code! Registrujte se anebo se Přihlašte na fórum.


Citace:
Scott Roper pracuje u sanfranciské policie jako "vyjednavač". Díky své mimořádné inteligenci, železným nervům a mrštnému jazyku dokáže většinou přesvědčit zločince držící rukojmí, aby se vzdali. Když ale Scott zjistí, že stojí tváří v tvář nebezpečnému psychopatovi, se kterým není rozumná řeč, dokáže bez váhání použít zbraň a zločince chladnokrevně zlikvidovat. Úspěšnost Scottových zásahů je stoprocentní a proto jeho nadřízení shovívavě mhouří obě oči nad jeho vášní pro luxusní auta a sázení na dostihové koně. Ovšem to, co prochází Scottovi v práci, nenalezlo pochopení u jeho přítelkyně Ronnie, která mu dala bez milosti kopačky. Když Scott dostane nového parťáka McCalla, není tím rozhodně nijak nadšen. Už proto, že chtěl na vlastní pěst vyšetřit vraždu svého staršího kolegy a přítele, kterého brutálně podřízl výjimečně nebezpečný a vychytralý padouch Korda. McCall si ale dokáže získat Scottovu důvěru a společnými silami po dramatické a zničující honičce v ulicích San Franciska Kordu zatknou. Scott se dokonce usmíří se svou láskou Ronnie a všichni by žili šťastně až do smrti, kdyby Korda zakrátko neprchl z vězení. A nechtěl se pomstít...(oficiální text distributora)


kvalita

Citace:
General
Complete name : E:\Policajt ze San Francisca .avi
Format : AVI
Format/Info : Audio Video Interleave
Format profile : OpenDML
File size : 1.61 GiB
Duration : 1h 52mn
Overall bit rate : 2 040 Kbps
Writing application : Lavf54.63.104

Video
ID : 0
Format : AVC
Format/Info : Advanced Video Codec
Format profile : Main@L3.1
Format settings, CABAC : Yes
Format settings, ReFrames : 1 frame
Codec ID : H264
Duration : 1h 52mn
Bit rate : 1 700 Kbps
Width : 1 024 pixels
Height : 576 pixels
Display aspect ratio : 16:9
Frame rate mode : Variable
Frame rate : 25.000 fps
Color space : YUV
Chroma subsampling : 4:2:0
Bit depth : 8 bits
Scan type : Progressive
Bits/(Pixel*Frame) : 0.115
Stream size : 1.34 GiB (84%)
Writing library : x264 core 129
Encoding settings : cabac=1 / ref=1 / deblock=1:0:0 / analyse=0x1:0x131 / me=dia / subme=2 / psy=1 / psy_rd=1.00:0.00 / mixed_ref=0 / me_range=16 / chroma_me=1 / trellis=0 / 8x8dct=0 / cqm=0 / deadzone=21,11 / fast_pskip=1 / chroma_qp_offset=0 / threads=2 / lookahead_threads=1 / sliced_threads=0 / nr=0 / decimate=1 / interlaced=0 / bluray_compat=0 / constrained_intra=0 / bframes=0 / weightp=2 / keyint=250 / keyint_min=25 / scenecut=40 / intra_refresh=0 / rc_lookahead=40 / rc=abr / mbtree=1 / bitrate=1700 / ratetol=1.0 / qcomp=0.60 / qpmin=10 / qpmax=51 / qpstep=4 / ip_ratio=1.41 / aq=1:1.00

Audio
ID : 1
Format : MPEG Audio
Format version : Version 1
Format profile : Layer 3
Mode : Joint stereo
Mode extension : MS Stereo
Codec ID : 55
Codec ID/Hint : MP3
Duration : 1h 52mn
Bit rate mode : Constant
Bit rate : 320 Kbps
Channel(s) : 2 channels
Sampling rate : 48.0 KHz
Compression mode : Lossy
Stream size : 258 MiB (16%)
Alignment : Aligned on interleaves
Interleave, duration : 24 ms (0.60 video frame)
Writing library : LAMEŞŞŞ


download

Pouze Registrovaní uživatelé mohou prohlížet odkazy v tagu code! Registrujte se anebo se Přihlašte na fórum.


Policajt-ze-San-Francisca-(1997)-(CZ)-(Akční,-Komedie,-Thriller)

Pouze Registrovaní uživatelé mohou prohlížet odkazy v tagu code! Registrujte se anebo se Přihlašte na fórum.


Naposledy upravil warup dne 09 srp 2018, 13:25, celkově upraveno 2

Nahoru 
 Profil  
 
Zobrazit příspěvky za předchozí:  Seřadit podle  
 
Odeslat nové téma Odpovědět na téma  [ Příspěvek: 1 ] 

Obsah fóra » Filmy download » CZ/SK dubbing


 
Nemůžete zakládat nová témata v tomto fóru
Nemůžete odpovídat v tomto fóru
Nemůžete upravovat své příspěvky v tomto fóru
Nemůžete mazat své příspěvky v tomto fóru
Nemůžete přikládat soubory v tomto fóru

Hledat:
Přejít na:  







TOPlist
Český překlad – phpBB.cz
Karma functions powered by Karma MOD © 2007, 2009 m157y
phpBB SEO



..:: Žádný ze zobrazených souborů, které můžete nalézt na tomto fóru, nejsou umístěny na tomto serveru. Autoři stránky nenesou zodpovědnost za příspěvky odeslané užívateli,ani za jejich další akce,které by mohli vést k porušování zákonů. Za své příspěvky zodpovídají uživatelé. Nepoužívejte tyto stránky k distribuci a nebo k downloadu jakýchkoliv materiálů, ke kterým nemáte legální oprávnění a nebo licenci ::..