Vítejte na stránkách . Klikněte zde pro registraci

Uživatelské jméno:   Heslo:   Pamätat si ma  Skrýt můj online stav 
Registrovat    Přihlásit se    Fórum    Hledat    FAQ
Bannery     Kontakt   


Informační Panel

:welcome:




www.centralwar.eu
www.centralwar.eu

Obsah fóra » Filmy download » CZ/SK dubbing




Odeslat nové téma Odpovědět na téma  [ Příspěvek: 1 ] 
Autor Zpráva
 Předmět příspěvku: Roj / The Swarm (1978)
 Příspěvek Napsal: 07 říj 2018, 11:21 
Offline
Registrovaní uživatelé

Registrován: 04 pro 2015, 22:42
ID Užívateľa: 65833

Online: 8d 4h 15m 48s
Poďakoval: 0 x
Obdržal: 1 x


Částka:
3,419.45



Karma: 0


Roj-(MICHAEL CAINE)-Thriller-1978-CZ-adriatic

Obrázek

info

Pouze Registrovaní uživatelé mohou prohlížet odkazy v tagu code! Registrujte se anebo se Přihlašte na fórum.


Citace:
Obrovský roj smrtiacich afrických včiel terorizuje Houston. Rozumný entomológ (Michael Caine) sa snaží prísť na spôsob ich likvidácie, a zároveň presvedčiť nerozumného vojenského generála (Richard Widmark), aby proti nim nešiel s tankmi.(POMO)


kvalita

Citace:
General
Complete name : D:\vypalit\Filmy\Roj-(MICHAEL CAINE)-Thriller-1978-CZ-adriatic.avi
Format : AVI
Format/Info : Audio Video Interleave
Format profile : OpenDML
File size : 2.27 GiB
Duration : 2h 28mn
Overall bit rate : 2 188 Kbps
Writing application : Lavf57.41.100

Video
ID : 0
Format : xvid
Codec ID : xvid
Duration : 2h 28mn
Bit rate : 2 048 Kbps
Width : 1 280 pixels
Height : 720 pixels
Display aspect ratio : 2.25:1
Frame rate : 25.000 fps
Bits/(Pixel*Frame) : 0.089
Stream size : 2.13 GiB (94%)

Audio
ID : 1
Format : MPEG Audio
Format version : Version 1
Format profile : Layer 3
Mode : Joint stereo
Mode extension : MS Stereo
Codec ID : 55
Codec ID/Hint : MP3
Duration : 2h 28mn
Bit rate mode : Constant
Bit rate : 128 Kbps
Channel(s) : 2 channels
Sampling rate : 44.1 KHz
Compression mode : Lossy
Stream size : 136 MiB (6%)
Alignment : Aligned on interleaves
Interleave, duration : 26 ms (0.65 video frame)
Interleave, preload duratio : 26 ms


download

Pouze Registrovaní uživatelé mohou prohlížet odkazy v tagu code! Registrujte se anebo se Přihlašte na fórum.


Nahoru 
 Profil  
 
Zobrazit příspěvky za předchozí:  Seřadit podle  
 
Odeslat nové téma Odpovědět na téma  [ Příspěvek: 1 ] 

Obsah fóra » Filmy download » CZ/SK dubbing


 
Nemůžete zakládat nová témata v tomto fóru
Nemůžete odpovídat v tomto fóru
Nemůžete upravovat své příspěvky v tomto fóru
Nemůžete mazat své příspěvky v tomto fóru
Nemůžete přikládat soubory v tomto fóru

Hledat:
Přejít na:  







cron
TOPlist
Český překlad – phpBB.cz
Karma functions powered by Karma MOD © 2007, 2009 m157y
phpBB SEO



..:: Žádný ze zobrazených souborů, které můžete nalézt na tomto fóru, nejsou umístěny na tomto serveru. Autoři stránky nenesou zodpovědnost za příspěvky odeslané užívateli,ani za jejich další akce,které by mohli vést k porušování zákonů. Za své příspěvky zodpovídají uživatelé. Nepoužívejte tyto stránky k distribuci a nebo k downloadu jakýchkoliv materiálů, ke kterým nemáte legální oprávnění a nebo licenci ::..