Vítejte na stránkách . Klikněte zde pro registraci

Uživatelské jméno:   Heslo:   Pamätat si ma  Skrýt můj online stav 
Registrovat    Přihlásit se    Fórum    Hledat    FAQ
Bannery     Kontakt   


Informační Panel

wel




www.centralwar.eu
www.centralwar.eu

Obsah fóra » Filmy download » CZ/SK dubbing




Odeslat nové téma Odpovědět na téma  [ Příspěvek: 1 ] 
Autor Zpráva
 Předmět příspěvku: Vymítač ďábla / The Exorcist (1973)
 Příspěvek Napsal: 16 úno 2019, 22:27 
Offline
Registrovaní uživatelé

Registrován: 04 pro 2015, 22:42
ID Užívateľa: 65833

Online: 9d 7h 23m 56s
Poďakoval: 0 x
Obdržal: 1 x


Částka:
4,502.90



Karma: 0


Obrázek

info

Pouze Registrovaní uživatelé mohou prohlížet odkazy v tagu code! Registrujte se anebo se Přihlašte na fórum.


Citace:
Dvanáctiletá Regan (Linda Blair - Vymítač ďábla 2: Kacíř [1977]) žije se svou matkou (Ellen Burstyn - Rituál [2006]) ve Washingtonu. Najednou začne projevovat zvláštní symptomy - levitaci, velkou fyzickou sílu a extrémní chování, když lékaři nepomohli, zoufalá matka přivolává na pomoc kněze ze sousedství. Do těla Regan totiž vstoupil ďábel. Masturbování pomocí krucifixu, Panna Maria měnící se na prostitutku - klasifikace přístupnosti R (mladší 17 let jen v doprovodu rodiče) a katolické skupiny tlačili až na přístupnost X (nejvyšší přístupnost). Občanský aktivisté bojovali o zastavění filmu z důvodu škodlivosti pro diváky, ale u soudů neuspěli. Vymítač ďábla je ve své podstatě horor a jeho vulgarita a násilí nejsou nepřiměřené jeho tématu.

The Exorcist (Exorcista) je americký nadpřirozený horor z roku 1973, který natočil hororový mistr William Friedkin podle knihy stejného názvu od autora William Peter Blatty.


kvalita

Citace:
General
Complete name : E:\Vypalit\Movie pack\Vymítač ďábla\MP4 360p MPEG4.mp4
Format : MPEG-4
Format profile : Base Media
Codec ID : isom
File size : 611 MiB
Duration : 2h 12mn
Overall bit rate mode : Constant
Overall bit rate : 646 Kbps
Movie name : Vymítač ďábla
Performer : Ellen Burstyn/Linda Blair
Genre : Horor
Recorded date : 1973
Writing application : Lavf57.41.100
Comment : EXORCIST

Video
ID : 1
Format : MPEG-4 Visual
Format profile : Simple@L1
Format settings, BVOP : No
Format settings, QPel : No
Format settings, GMC : No warppoints
Format settings, Matrix : Default (H.263)
Codec ID : 20
Duration : 2h 12mn
Bit rate mode : Constant
Bit rate : 512 Kbps
Width : 640 pixels
Height : 360 pixels
Display aspect ratio : 16:9
Frame rate mode : Constant
Frame rate : 25.000 fps
Color space : YUV
Chroma subsampling : 4:2:0
Bit depth : 8 bits
Scan type : Progressive
Compression mode : Lossy
Bits/(Pixel*Frame) : 0.089
Stream size : 485 MiB (79%)
Writing library : Lavc57.48.101
Language : English

Audio
ID : 2
Format : AAC
Format/Info : Advanced Audio Codec
Format profile : LC
Codec ID : 40
Duration : 2h 12mn
Bit rate mode : Constant
Bit rate : 129 Kbps
Channel(s) : 2 channels
Channel positions : Front: L R
Sampling rate : 44.1 KHz
Compression mode : Lossy
Stream size : 122 MiB (20%)
Language : English


download

Pouze Registrovaní uživatelé mohou prohlížet odkazy v tagu code! Registrujte se anebo se Přihlašte na fórum.


Naposledy upravil warup dne 16 úno 2019, 22:41, celkově upraveno 1

Nahoru 
 Profil  
 
Zobrazit příspěvky za předchozí:  Seřadit podle  
 
Odeslat nové téma Odpovědět na téma  [ Příspěvek: 1 ] 

Obsah fóra » Filmy download » CZ/SK dubbing


 
Nemůžete zakládat nová témata v tomto fóru
Nemůžete odpovídat v tomto fóru
Nemůžete upravovat své příspěvky v tomto fóru
Nemůžete mazat své příspěvky v tomto fóru
Nemůžete přikládat soubory v tomto fóru

Hledat:
Přejít na:  







cron
TOPlist
Český překlad – phpBB.cz
Karma functions powered by Karma MOD © 2007, 2009 m157y
phpBB SEO



..:: Žádný ze zobrazených souborů, které můžete nalézt na tomto fóru, nejsou umístěny na tomto serveru. Autoři stránky nenesou zodpovědnost za příspěvky odeslané užívateli,ani za jejich další akce,které by mohli vést k porušování zákonů. Za své příspěvky zodpovídají uživatelé. Nepoužívejte tyto stránky k distribuci a nebo k downloadu jakýchkoliv materiálů, ke kterým nemáte legální oprávnění a nebo licenci ::..