Vítejte na stránkách . Klikněte zde pro registraci

Uživatelské jméno:   Heslo:   Pamätat si ma  Skrýt můj online stav 
Registrovat    Přihlásit se    Fórum    Hledat    FAQ
Bannery     Kontakt   


Informační Panel

wel




www.centralwar.eu
www.centralwar.eu

Obsah fóra » Filmy download » CZ/SK dubbing




Odeslat nové téma Odpovědět na téma  [ Příspěvek: 1 ] 
Autor Zpráva
 Předmět příspěvku: Přichází Satan! / Omen, The (1976)
 Příspěvek Napsal: 19 úno 2019, 12:40 
Offline
Registrovaní uživatelé

Registrován: 04 pro 2015, 22:42
ID Užívateľa: 65833

Online: 10d 12h 10m 19s
Poďakoval: 0 x
Obdržal: 1 x


Částka:
5,134.20



Karma: 0


Přichází Satan

Obrázek

info

Pouze Registrovaní uživatelé mohou prohlížet odkazy v tagu code! Registrujte se anebo se Přihlašte na fórum.


Citace:
Americký politik Thorn (Gregory Peck) adoptuje za velice zvláštních okolností malého chlapce. Má jméno Damien (Harvey Stephens) a dějí se kolem něj záhadné věci. Při jedné jeho návštěvě zoologické zahrady propadnou zvířata nevysvětlitelnému záchvatu agresivity a množí se i smrtelné nehody v blízkosti rodiny Thornových - pokaždé v souvislosti s malým Damienem. Thorn si to začíná uvědomovat a v zoufalství vyhledá kněze, který mu objasní příčinu - jeho adoptivní syn je vtělením samotného Satana...

Tento sugestivní horrorový snímek natočil režisér Richard Donner podle románu Davida Seltzera. Film slavil obrovský úspěch i díky vynikající hudbě, kterou složil fenomenální skladatel Jerry Goldsmith a za kterou byl po právu oceněn prestižním Oscarem (nepříliš po právu jediným ve své dlouholeté kariéře).


kvalita

Citace:
General
Complete name : E:\Vypalit\Movie pack\Přichází Satan!\Přichází Satan.mp4
Format : MPEG-4
Format profile : Base Media
Codec ID : isom
File size : 1.62 GiB
Duration : 1h 46mn
Overall bit rate mode : Constant
Overall bit rate : 2 182 Kbps
Writing application : Lavf57.41.100

Video
ID : 1
Format : MPEG-4 Visual
Format profile : Simple@L1
Format settings, BVOP : No
Format settings, QPel : No
Format settings, GMC : No warppoints
Format settings, Matrix : Default (H.263)
Codec ID : 20
Duration : 1h 46mn
Bit rate mode : Constant
Bit rate : 2 048 Kbps
Width : 1 280 pixels
Height : 720 pixels
Display aspect ratio : 16:9
Frame rate mode : Constant
Frame rate : 25.000 fps
Color space : YUV
Chroma subsampling : 4:2:0
Bit depth : 8 bits
Scan type : Progressive
Compression mode : Lossy
Bits/(Pixel*Frame) : 0.089
Stream size : 1.52 GiB (94%)
Writing library : Lavc57.48.101

Audio
ID : 2
Format : AAC
Format/Info : Advanced Audio Codec
Format profile : LC
Codec ID : 40
Duration : 1h 46mn
Duration_LastFrame : -15ms
Bit rate mode : Constant
Bit rate : 129 Kbps
Channel(s) : 2 channels
Channel positions : Front: L R
Sampling rate : 44.1 KHz
Compression mode : Lossy
Stream size : 97.9 MiB (6%)


download

Pouze Registrovaní uživatelé mohou prohlížet odkazy v tagu code! Registrujte se anebo se Přihlašte na fórum.


Nahoru 
 Profil  
 
Zobrazit příspěvky za předchozí:  Seřadit podle  
 
Odeslat nové téma Odpovědět na téma  [ Příspěvek: 1 ] 

Obsah fóra » Filmy download » CZ/SK dubbing


 
Nemůžete zakládat nová témata v tomto fóru
Nemůžete odpovídat v tomto fóru
Nemůžete upravovat své příspěvky v tomto fóru
Nemůžete mazat své příspěvky v tomto fóru
Nemůžete přikládat soubory v tomto fóru

Hledat:
Přejít na:  







TOPlist
Český překlad – phpBB.cz
Karma functions powered by Karma MOD © 2007, 2009 m157y
phpBB SEO



..:: Žádný ze zobrazených souborů, které můžete nalézt na tomto fóru, nejsou umístěny na tomto serveru. Autoři stránky nenesou zodpovědnost za příspěvky odeslané užívateli,ani za jejich další akce,které by mohli vést k porušování zákonů. Za své příspěvky zodpovídají uživatelé. Nepoužívejte tyto stránky k distribuci a nebo k downloadu jakýchkoliv materiálů, ke kterým nemáte legální oprávnění a nebo licenci ::..