Vítejte na stránkách . Klikněte zde pro registraci

Uživatelské jméno:   Heslo:   Pamätat si ma  Skrýt můj online stav 
Registrovat    Přihlásit se    Fórum    Hledat    FAQ
Bannery     Kontakt   


Informační Panel

wel




www.centralwar.eu
www.centralwar.eu

Obsah fóra » Filmy download » CZ/SK dubbing




Odeslat nové téma Odpovědět na téma  [ Příspěvek: 1 ] 
Autor Zpráva
 Předmět příspěvku: Betsyina svatba / Betsy's Wedding (1990)
 Příspěvek Napsal: 19 čer 2019, 14:39 
Offline
Registrovaní uživatelé

Registrován: 04 pro 2015, 22:42
ID Užívateľa: 65833

Online: 10d 16h 50m 13s
Poďakoval: 0 x
Obdržal: 1 x


Částka:
5,144.20



Karma: 0


Obrázek

info

Pouze Registrovaní uživatelé mohou prohlížet odkazy v tagu code! Registrujte se anebo se Přihlašte na fórum.


Citace:
Americká romantická komedie Alana Aldy, který si v ní zahrál nejen jednu z hlavních rolí, ale také k ní napsal scénář a režíroval ji, vypráví o přípravách na monstrózní svatbu, o niž ale snoubenci vůbec nestojí a otec nevěsty si ji vlastně ani nemůže dovolit. Eddie Hopper (Alan Alda) by chtěl své dceři dopřát nádhernou svatbu se stovkou hostů, úžasnou hostinou a tanečním orchestrem, i když Betsy o ní nechce ani slyšet. Proto se dá dohromady se svým švagrem Oscarem (Joe Pesci) a jeho podezřelými partnery, jenže obě strany budoucí rodiny preferují své tradice a situace se vyhrotí natolik, že mladý pár začne pochybovat, zda chce vůbec svatební obřad podstoupit. Eddie, jeho žena Lola, starší dcera Connie a Lolina sestra Gloria nicméně zjišťují, jak se jejich život pod narůstajícím svatebním tlakem proměňuje a začnou přemýšlet víc o tom, jací jsou, jaké hodnoty pro ně mají smysl a s kým chtějí strávit život.(oficiální text distributora)


kvalita

Citace:
Video
ID : 1
Format : MPEG-4 Visual
Format profile : Simple@L1
Format settings, BVOP : No
Format settings, QPel : No
Format settings, GMC : No warppoints
Format settings, Matrix : Default (H.263)
Codec ID : 20
Duration : 1h 27mn
Bit rate mode : Constant
Bit rate : 512 Kbps
Width : 640 pixels
Height : 360 pixels
Display aspect ratio : 16:9
Original display aspect rat : 16:9
Frame rate mode : Constant
Frame rate : 10.000 fps
Color space : YUV
Chroma subsampling : 4:2:0
Bit depth : 8 bits
Scan type : Progressive
Compression mode : Lossy
Bits/(Pixel*Frame) : 0.222
Stream size : 321 MiB (80%)
Writing library : Lavc58.18.100

Audio
ID : 2
Format : AAC
Format/Info : Advanced Audio Codec
Format profile : LC
Codec ID : 40
Duration : 1h 27mn
Duration_LastFrame : -20ms
Bit rate mode : Constant
Bit rate : 128 Kbps
Channel(s) : 2 channels
Channel positions : Front: L R
Sampling rate : 44.1 KHz
Compression mode : Lossy
Stream size : 80.6 MiB (20%)


download

Pouze Registrovaní uživatelé mohou prohlížet odkazy v tagu code! Registrujte se anebo se Přihlašte na fórum.


Nahoru 
 Profil  
 
Zobrazit příspěvky za předchozí:  Seřadit podle  
 
Odeslat nové téma Odpovědět na téma  [ Příspěvek: 1 ] 

Obsah fóra » Filmy download » CZ/SK dubbing


 
Nemůžete zakládat nová témata v tomto fóru
Nemůžete odpovídat v tomto fóru
Nemůžete upravovat své příspěvky v tomto fóru
Nemůžete mazat své příspěvky v tomto fóru
Nemůžete přikládat soubory v tomto fóru

Hledat:
Přejít na:  







cron
TOPlist
Český překlad – phpBB.cz
Karma functions powered by Karma MOD © 2007, 2009 m157y
phpBB SEO



..:: Žádný ze zobrazených souborů, které můžete nalézt na tomto fóru, nejsou umístěny na tomto serveru. Autoři stránky nenesou zodpovědnost za příspěvky odeslané užívateli,ani za jejich další akce,které by mohli vést k porušování zákonů. Za své příspěvky zodpovídají uživatelé. Nepoužívejte tyto stránky k distribuci a nebo k downloadu jakýchkoliv materiálů, ke kterým nemáte legální oprávnění a nebo licenci ::..