Vítejte na stránkách . Klikněte zde pro registraci

Uživatelské jméno:   Heslo:   Pamätat si ma  Skrýt můj online stav 
Registrovat    Přihlásit se    Fórum    Hledat    FAQ
Bannery     Kontakt   


Informační Panel

:welcome:




www.centralwar.eu
www.centralwar.eu

Obsah fóra » Filmy download » CZ/SK dubbing




Odeslat nové téma Odpovědět na téma  [ Příspěvků: 2 ] 
Autor Zpráva
 Předmět příspěvku: Re: Coco Chanel / Coco Before Chanel (2009)
 Příspěvek Napsal: 25 kvě 2010, 18:27 
Offline
V.I.P
Uživatelský avatar

Registrován: 08 kvě 2010, 19:02
ID Užívateľa: 37940

Online: 28d 15h 4m 41s
Poďakoval: 1 x
Obdržal: 8 x


Částka:
12,266.20



Karma: 17



Medals: 4
Coco Chanel / Coco Before Chanel (2009)

Obrázek

Drama
Francie, 2009, 105 min

Režie: Anne Fontaine
Hrají: Audrey Tautou, Benoît Poelvoorde, Alessandro Nivola, Marie Gillain, Emmanuelle Devos



:CSFD
Pouze Registrovaní uživatelé mohou prohlížet odkazy v tagu code! Registrujte se anebo se Přihlašte na fórum.




Citace:
Malá dívka uprostřed Francie, umístěná v sirotčinci se svou sestrou, marně čeká každou neděli, že se pro ně jejich tatínek vrátí. Kabaretní zpěvačka s příliš slabým hlasem stojící před publikem podnapilých vojáků. Mladá švadlena, jejíž prací je opravovat lemy v zadní místnosti obchodu venkovského krejčího. Příliš hubená začínající kurtizána, uprostřed prostitutek a zhýralců, nachází útočiště u svého ochránce Étienna Balsana. Zamilovaná žena, která ví, že nebude „ničí ženou“, ani ženou Boye Capela, muže, který ji přesto tolik miloval. Rebelka, které konvence tehdejší doby brání volně dýchat a která se


Kvalita
Pouze Registrovaní uživatelé mohou prohlížet odkazy v tagu code! Registrujte se anebo se Přihlašte na fórum.


upnito

1x863 mb


Pouze Registrovaní uživatelé mohou prohlížet odkazy v tagu code! Registrujte se anebo se Přihlašte na fórum.


heslo
Pouze Registrovaní uživatelé mohou prohlížet odkazy v tagu code! Registrujte se anebo se Přihlašte na fórum.


Naposledy upravil draha dne 21 lis 2015, 22:35, celkově upraveno 2
Mŕtve linky zmazané


Nahoru 
 Profil  
 
 Předmět příspěvku: Coco Chanel / Coco Before Chanel (2009)
 Příspěvek Napsal: 07 zář 2018, 12:32 
Offline
Registrovaní uživatelé

Registrován: 27 led 2016, 20:28
ID Užívateľa: 65951

Online: 7d 23h 5m 54s
Poďakoval: 0 x
Obdržal: 0 x


Částka:
2,718.90



Karma: 0


Coco Chanel / Coco avant Chanel (2009)
Video/Zdroj: BRRip
Audio: CZ AC-3 5.1ch

Obrázek

CSFD / IMDB
Pouze Registrovaní uživatelé mohou prohlížet odkazy v tagu code! Registrujte se anebo se Přihlašte na fórum.


INFO
Citace:
Format : AVI
Format/Info : Audio Video Interleave
File size : 1.52 GiB
Duration : 1h 45mn
Overall bit rate : 2 055 Kbps

Video
Format : MPEG-4 Visual
Format settings, Matrix : Default (H.263)
Codec ID/Hint : XviD
Duration : 1h 45mn
Bit rate : 1 598 Kbps
Width : 720 pixels
Height : 406 pixels
Display aspect ratio : 16:9
Frame rate : 25.000 fps
Color space : YUV
Chroma subsampling : 4:2:0
Bit depth : 8 bits
Scan type : Progressive
Compression mode : Lossy
Bits/(Pixel*Frame) : 0.219
Stream size : 1.18 GiB (78%)

Audio
Format : AC-3
Duration : 1h 45mn
Bit rate mode : Constant
Bit rate : 448 Kbps
Channel(s) : 6 channels
Channel positions : Front: L C R, Side: L R, LFE
Sampling rate : 48.0 KHz
Frame rate : 31.250 fps (1536 spf)
Compression mode : Lossy
Stream size : 339 MiB (22%)
Alignment : Aligned on interleaves
Interleave, duration : 40 ms (1.00 video frame)
Interleave, preload duratio : 512 ms


Fastshare
Pouze Registrovaní uživatelé mohou prohlížet odkazy v tagu code! Registrujte se anebo se Přihlašte na fórum.


Nahoru 
 Profil  
 
Zobrazit příspěvky za předchozí:  Seřadit podle  
 
Odeslat nové téma Odpovědět na téma  [ Příspěvků: 2 ] 

Obsah fóra » Filmy download » CZ/SK dubbing


 
Nemůžete zakládat nová témata v tomto fóru
Nemůžete odpovídat v tomto fóru
Nemůžete upravovat své příspěvky v tomto fóru
Nemůžete mazat své příspěvky v tomto fóru
Nemůžete přikládat soubory v tomto fóru

Hledat:
Přejít na:  







cron
TOPlist
Český překlad – phpBB.cz
Karma functions powered by Karma MOD © 2007, 2009 m157y
phpBB SEO



..:: Žádný ze zobrazených souborů, které můžete nalézt na tomto fóru, nejsou umístěny na tomto serveru. Autoři stránky nenesou zodpovědnost za příspěvky odeslané užívateli,ani za jejich další akce,které by mohli vést k porušování zákonů. Za své příspěvky zodpovídají uživatelé. Nepoužívejte tyto stránky k distribuci a nebo k downloadu jakýchkoliv materiálů, ke kterým nemáte legální oprávnění a nebo licenci ::..