Vítejte na stránkách . Klikněte zde pro registraci

Uživatelské jméno:   Heslo:   Pamätat si ma  Skrýt můj online stav 
Registrovat    Přihlásit se    Fórum    Hledat    FAQ
Bannery     Kontakt   


Informační Panel






www.centralwar.eu
www.centralwar.eu

Obsah fóra » Filmy download » Seriály » Seriály CZ/SK dubbing




Odeslat nové téma Odpovědět na téma  [ Příspěvek: 1 ] 
Autor Zpráva
 Předmět příspěvku: Rodina Addamsovcov / Addams Family, The Komplet (1964-66)
 Příspěvek Napsal: 31 kvě 2015, 11:45 
Offline
Registrovaní uživatelé

Registrován: 07 úno 2012, 20:26
ID Užívateľa: 55299

Online: 6d 14h 52m 33s
Poďakoval: 3 x
Obdržal: 1 x


Částka:
6,786.90



Karma: 0


Rodina Addamsovcov / The Addams Family Komplet (1964-66)

SK dabing


Obrázek
Pouze Registrovaní uživatelé mohou prohlížet odkazy v tagu code! Registrujte se anebo se Přihlašte na fórum.

Komedie / Rodinný / Horor
USA, 1964, 64x30 min

Režie: Jerry Hopper, Sidney Lanfield, Sidney Salkow, Jean Y… (více)
Kamera: Archie R. Dalzell
Hudba: Vic Mizzy
Hrají: John Astin, Carolyn Jones, Vito Scotti, Jackie Coogan, Don Rickles, Marie Blake, Lisa Loring, Ken Weatherwax, Ted Cassidy, Rolfe Sedan, Felix Silla, Anthony Magro, Parley Baer, Natalie Masters, George Petrie, Hugh Sanders, Bob LeMond, Tim Herbert, Roger Arroyo, Robert Nunn, Richard Reeves, George Barrows, Allyn Joslyn, Jimmy Cros…
Délka cca 25 min

Obsah: Addamsovi vážně nejsou typická rodina. Naopak mají požitek ze spousty věcí, které by 'normální' lidi zděsily. Gomez Adams je abnormálně zámožný muž a je schopen splnit každé přání své choti Morticie: ať je to pěstování jedovatých kytiček, nebo večeře při svíčkách na hřbitově. Ale lidé, kteří Addamsovi navštíví, nevypadají zrovna nadšeně z více jak dvoumetrového, smrtelně bledého komorníka Lurche, či jeho pomocné ruky (doslova), ale vůbec z celé téhle povedené rodinky...

Zoznam častí:

01.) The Addams Family Goes to School
02.) Morticia and the Psychiatrist
03.) Morticia Joins the Ladies League
04.) Fester's Punctured Romance
05.) The Addams Family Tree
06.) Gomez, the Politician
07.) The New Neighbors Meet the Addams Family
08.) Halloween with the Addams Family
09.) Morticia, the Matchmaker
10.) Green-Eyed Gomez
11.) Wednesday Leaves Home
12.) The Addams Family Meet the VIPs
13.) Lurch Learns to Dance
14.) The Addams Family Meets a Beatnik
15.) Art and the Addams Family
16.) The Addams Family Meets the Undercover Man
17.) Mother Lurch Visits the Addams Family
18.) Uncle Fester's Illness
19.) The Addams Family Splurges
20.) Cousin Itt Visits the Addams Family
21.) The Addams Family in Court
22.) Amnesia in the Addams Family
23.) Thing Is Missing
24.) Crisis in the Addams Family
25.) Lurch and His Harpsichord
26.) Morticia, the Breadwinner
27.) The Addams Family and the Spaceman
28.) My Son, the Chimp
29.) Morticia's Favorite Charity
30.) Progress and the Addams Family
31.) Uncle Fester's Toupee
32.) Cousin Itt and the Vocational Counselor
33.) Lurch, the Teenage Idol
34.) The Winning of Morticia Addams
35.) Morticia's Romance (part 1)
36.) Morticia's Romance (part 2)
37.) Morticia the Sculptress
38.) Morticia Meets Royalty
39.) My Fair Cousin Itt
40.) Gomez the Reluctant Lover
41.) Halloween Addams Style
42.) Gomez the People's Choice
43.) Morticia the Writer
44.) Cousin Itt's Problem
45.) Feud in the Addams Family
46.) Uncle Fester Tycoon
47.) Morticia's Dilemma
48.) Gomez the Cat Burglar
49.) Christmas with the Addams Family
50.) Portrait of Gomez
51.) Fester Goes on a Diet
52.) The Great Treasure Hunt
53.) Morticia & Gomez vs Fester & Grandmama
54.) Ophelia Finds Romance
55.) Morticia the Decorator
56.) Pugsley's Allowance
57.) Happy Birthday Grandma Frump
58.) Ophelia Visits Morticia
59.) Addams Cum Laude
60.) Cat Addams
61.) Lurch's Little Helper
62.) The Addams Policy
63.) Lurch's Grand Romance
64.) Ophelia's Career

Citace:
Sculptress (SK dabing).ts
Format: MPEG-TS
File size: 550 MiB
Duration: 23mn 37s
Overall bit rate mode: Variable
Overall bit rate: 3 252 Kbps

Video
ID: 4020 (0xFB4)
Menu ID: 1 (0x1)
Format: MPEG Video
Format version: Version 2
Format profile: Main@Main
Format settings, BVOP: Yes
Format settings, Matrix: Custom
Format settings, GOP: Variable
Codec ID: 2
Duration: 23mn 37s
Bit rate mode: Variable
Bit rate: 2 962 Kbps
Maximum bit rate: 3 000 Kbps
Width: 720 pixels
Height: 576 pixels
Display aspect ratio: 4:3
Frame rate: 25.000 fps
Standard: PAL
Color space: YUV
Chroma subsampling: 4:2:0
Bit depth: 8 bits
Scan type: Interlaced
Scan order: Top Field First
Compression mode: Lossy
Bits/(Pixel*Frame): 0.286
Time code of first frame: 00:00:00:00
Time code source: Group of pictures header
Stream size: 501 MiB (91%)

Audio
ID: 4030 (0xFBE)
Menu ID: 1 (0x1)
Format: MPEG Audio
Format version: Version 1
Format profile: Layer 2
Codec ID: 3
Duration: 23mn 37s
Bit rate mode: Constant
Bit rate: 128 Kbps
Channel(s): 2 channels
Sampling rate: 48.0 KHz
Compression mode: Lossy
Stream size: 21.6 MiB (4%)
Language: Slovak

Text
ID: 4130 (0x1022)-100
Menu ID: 1 (0x1)
Format: Teletext
Language: Slovak

Menu
ID: 256 (0x100)
Menu ID: 1 (0x1)
Duration: 23mn 37s
List: 4020 (0xFB4) (MPEG Video) / 4030 (0xFBE) (MPEG Audio, Slovak) / 4130 (0x1022) ()
Language : / Slovak


Pouze Registrovaní uživatelé mohou prohlížet odkazy v tagu code! Registrujte se anebo se Přihlašte na fórum.


Pouze Registrovaní uživatelé mohou prohlížet odkazy v tagu code! Registrujte se anebo se Přihlašte na fórum.


Naposledy upravil Stanley dne 31 kvě 2015, 20:50, celkově upraveno 2
přidána ikona servru


Nahoru 
 Profil  
 
Zobrazit příspěvky za předchozí:  Seřadit podle  
 
Odeslat nové téma Odpovědět na téma  [ Příspěvek: 1 ] 

Obsah fóra » Filmy download » Seriály » Seriály CZ/SK dubbing


 
Nemůžete zakládat nová témata v tomto fóru
Nemůžete odpovídat v tomto fóru
Nemůžete upravovat své příspěvky v tomto fóru
Nemůžete mazat své příspěvky v tomto fóru
Nemůžete přikládat soubory v tomto fóru

Hledat:
Přejít na:  







cron
TOPlist
Český překlad – phpBB.cz
Karma functions powered by Karma MOD © 2007, 2009 m157y
phpBB SEO



..:: Žádný ze zobrazených souborů, které můžete nalézt na tomto fóru, nejsou umístěny na tomto serveru. Autoři stránky nenesou zodpovědnost za příspěvky odeslané užívateli,ani za jejich další akce,které by mohli vést k porušování zákonů. Za své příspěvky zodpovídají uživatelé. Nepoužívejte tyto stránky k distribuci a nebo k downloadu jakýchkoliv materiálů, ke kterým nemáte legální oprávnění a nebo licenci ::..