Vítejte na stránkách . Klikněte zde pro registraci

Uživatelské jméno:   Heslo:   Pamätat si ma  Skrýt můj online stav 
Registrovat    Přihlásit se    Fórum    Hledat    FAQ
Bannery     Kontakt   


Informační Panel






www.centralwar.eu
www.centralwar.eu

Obsah fóra » Filmy download » Seriály » Seriály CZ/SK dubbing




Odeslat nové téma Odpovědět na téma  [ Příspěvek: 1 ] 
Autor Zpráva
 Předmět příspěvku: Křižovatka smrti / Rush Hour (2016)
 Příspěvek Napsal: 17 pro 2019, 20:54 
Offline
Registrovaní uživatelé

Registrován: 04 pro 2015, 21:42
ID Užívateľa: 65833

Online: 12d 11h 11m 1s
Poďakoval: 0 x
Obdržal: 1 x


Částka:
7,555.10



Karma: 0


Obrázek

info

Pouze Registrovaní uživatelé mohou prohlížet odkazy v tagu code! Registrujte se anebo se Přihlašte na fórum.


Citace:
Hongkongský inspektor Lee (Jon Foo) je přidělen k případu v Los Angeles. Jako parťák mu je přidělen arogantní afroamerický policista, detektiv James Carter (Justin Hires) který nemá ani nejmenší zájem na tom, aby s ním spolupracoval na případu. Restart populární filmové trilogie stejného jména, ve které si zahráli Jackie Chan a Chris Tucker.(kytka.patrik)


kvalita

Citace:
General
Complete name : E:\Krizovatka smrti S01E07 CZ.avi
Format : AVI
Format/Info : Audio Video Interleave
File size : 398 MiB
Duration : 39mn 34s
Overall bit rate mode : Variable
Overall bit rate : 1 404 Kbps
Writing application : VirtualDubMod 1.5.4.1 (build 2178/release)
Writing library : VirtualDub build 35491/release

Video
ID : 0
Format : MPEG-4 Visual
Format profile : Advanced Simple@L5
Format settings, BVOP : 1
Format settings, QPel : No
Format settings, GMC : No warppoints
Format settings, Matrix : Custom
Codec ID : XVID
Codec ID/Hint : XviD
Duration : 39mn 34s
Bit rate : 1 280 Kbps
Width : 720 pixels
Height : 416 pixels
Display aspect ratio : 1.731
Frame rate : 25.000 fps
Color space : YUV
Chroma subsampling : 4:2:0
Bit depth : 8 bits
Scan type : Progressive
Compression mode : Lossy
Bits/(Pixel*Frame) : 0.171
Stream size : 362 MiB (91%)
Writing library : XviD 64

Audio
ID : 1
Format : MPEG Audio
Format version : Version 1
Format profile : Layer 3
Mode : Joint stereo
Mode extension : MS Stereo
Codec ID : 55
Codec ID/Hint : MP3
Duration : 39mn 34s
Bit rate mode : Variable
Bit rate : 112 Kbps
Channel(s) : 2 channels
Sampling rate : 48.0 KHz
Compression mode : Lossy
Stream size : 31.5 MiB (8%)
Alignment : Aligned on interleaves
Interleave, duration : 24 ms (0.60 video frame)
Interleave, preload duratio : 503 ms


download

Pouze Registrovaní uživatelé mohou prohlížet odkazy v tagu code! Registrujte se anebo se Přihlašte na fórum.


Naposledy upravil warup dne 18 pro 2019, 11:12, celkově upraveno 5

Nahoru 
 Profil  
 
Zobrazit příspěvky za předchozí:  Seřadit podle  
 
Odeslat nové téma Odpovědět na téma  [ Příspěvek: 1 ] 

Obsah fóra » Filmy download » Seriály » Seriály CZ/SK dubbing


 
Nemůžete zakládat nová témata v tomto fóru
Nemůžete odpovídat v tomto fóru
Nemůžete upravovat své příspěvky v tomto fóru
Nemůžete mazat své příspěvky v tomto fóru
Nemůžete přikládat soubory v tomto fóru

Hledat:
Přejít na:  







TOPlist
Český překlad – phpBB.cz
Karma functions powered by Karma MOD © 2007, 2009 m157y
phpBB SEO



..:: Žádný ze zobrazených souborů, které můžete nalézt na tomto fóru, nejsou umístěny na tomto serveru. Autoři stránky nenesou zodpovědnost za příspěvky odeslané užívateli,ani za jejich další akce,které by mohli vést k porušování zákonů. Za své příspěvky zodpovídají uživatelé. Nepoužívejte tyto stránky k distribuci a nebo k downloadu jakýchkoliv materiálů, ke kterým nemáte legální oprávnění a nebo licenci ::..