Vítejte na stránkách . Klikněte zde pro registraci

Uživatelské jméno:   Heslo:   Pamätat si ma  Skrýt můj online stav 
Registrovat    Přihlásit se    Fórum    Hledat    FAQ
Bannery     Kontakt   


Informační Panel






www.centralwar.eu
www.centralwar.eu

Obsah fóra » Filmy download » Seriály » Seriály CZ/SK dubbing




Odeslat nové téma Odpovědět na téma  [ Příspěvek: 1 ] 
Autor Zpráva
 Předmět příspěvku: Skladiště 13 / Warehouse 13 (2009)
 Příspěvek Napsal: 18 pro 2019, 21:48 
Offline
Registrovaní uživatelé

Registrován: 04 pro 2015, 21:42
ID Užívateľa: 65833

Online: 12d 11h 11m 1s
Poďakoval: 0 x
Obdržal: 1 x


Částka:
7,555.10



Karma: 0


Obrázek

INFO

Pouze Registrovaní uživatelé mohou prohlížet odkazy v tagu code! Registrujte se anebo se Přihlašte na fórum.


Citace:
V kombinaci dramatu a komedie (dramedy) sledujeme působení dvou tajných agentů Petera Lattimera (Eddie McClintock) a Myky Beringové (Joanne Kelly) na podivném místě v Jižní Dakotě zvaném 'Warehouse 13' - skladiště, kde americká armáda uchovává vzácné a nadpřirozené předměty, cennosti a tajuplné relikvie. Úkolem agentů je tyto předměty zkoumat a pozorovat, aby za pomoci jejich podivných činností mohli vystopovat další takové předměty a v tomto skladišti je ukrýt před zbytkem světa.(iHyik)


KVALITA

Citace:
General
Complete name : E:\01.Skladiště-13-S01E01---Pilot.avi
Format : AVI
Format/Info : Audio Video Interleave
File size : 363 MiB
Duration : 43mn 40s
Overall bit rate : 1 161 Kbps
Writing application : MEncoder SVN-r33883(20110719-gcc4.5.2)
Writing library : MPlayer

Video
ID : 0
Format : MPEG-4 Visual
Format profile : Simple@L1
Format settings, BVOP : No
Format settings, QPel : No
Format settings, GMC : No warppoints
Format settings, Matrix : Default (H.263)
Codec ID : DX50
Codec ID/Hint : DivX 5
Duration : 43mn 40s
Bit rate : 1 021 Kbps
Width : 856 pixels
Height : 480 pixels
Display aspect ratio : 16:9
Frame rate : 24.000 fps
Color space : YUV
Chroma subsampling : 4:2:0
Bit depth : 8 bits
Scan type : Progressive
Compression mode : Lossy
Bits/(Pixel*Frame) : 0.104
Stream size : 319 MiB (88%)
Writing library : Lavc53.8.0

Audio
ID : 1
Format : MPEG Audio
Format version : Version 1
Format profile : Layer 3
Mode : Joint stereo
Mode extension : MS Stereo
Codec ID : 55
Codec ID/Hint : MP3
Duration : 43mn 40s
Bit rate mode : Constant
Bit rate : 128 Kbps
Channel(s) : 2 channels
Sampling rate : 44.1 KHz
Compression mode : Lossy
Stream size : 40.0 MiB (11%)
Alignment : Aligned on interleaves
Interleave, duration : 26 ms (0.63 video frame)
Interleave, preload duratio : 522 ms
Writing library : LAME3.98.4Ş


DOWNLOAD

Pouze Registrovaní uživatelé mohou prohlížet odkazy v tagu code! Registrujte se anebo se Přihlašte na fórum.


Naposledy upravil warup dne 20 pro 2019, 00:47, celkově upraveno 6

Nahoru 
 Profil  
 
Zobrazit příspěvky za předchozí:  Seřadit podle  
 
Odeslat nové téma Odpovědět na téma  [ Příspěvek: 1 ] 

Obsah fóra » Filmy download » Seriály » Seriály CZ/SK dubbing


 
Nemůžete zakládat nová témata v tomto fóru
Nemůžete odpovídat v tomto fóru
Nemůžete upravovat své příspěvky v tomto fóru
Nemůžete mazat své příspěvky v tomto fóru
Nemůžete přikládat soubory v tomto fóru

Hledat:
Přejít na:  







TOPlist
Český překlad – phpBB.cz
Karma functions powered by Karma MOD © 2007, 2009 m157y
phpBB SEO



..:: Žádný ze zobrazených souborů, které můžete nalézt na tomto fóru, nejsou umístěny na tomto serveru. Autoři stránky nenesou zodpovědnost za příspěvky odeslané užívateli,ani za jejich další akce,které by mohli vést k porušování zákonů. Za své příspěvky zodpovídají uživatelé. Nepoužívejte tyto stránky k distribuci a nebo k downloadu jakýchkoliv materiálů, ke kterým nemáte legální oprávnění a nebo licenci ::..