Vítejte na stránkách . Klikněte zde pro registraci

Uživatelské jméno:   Heslo:   Pamätat si ma  Skrýt můj online stav 
Registrovat    Přihlásit se    Fórum    Hledat    FAQ
Bannery     Kontakt   


Informační Panel






www.centralwar.eu
www.centralwar.eu

Obsah fóra » Filmy download » Seriály » Seriály CZ/SK dubbing




Odeslat nové téma Odpovědět na téma  [ Příspěvků: 14 ]  Přejít na stránku 1, 2  Další
Autor Zpráva
 Předmět příspěvku: Farscape (1999)
 Příspěvek Napsal: 22 bře 2009, 11:16 
Offline
Noví členové fóra

Registrován: 02 zář 2007, 21:49
ID Užívateľa: 212

Online: 0s
Poďakoval: 0 x
Obdržal: 0 x


Částka: Zamknuté


Karma: 0


FARSCAPE (CZ/EN)

CSFD:
http://www.csfd.cz/film/150805-farscape/


KVALITA

Format : AVI
Length : 394 MiB for 44mn 14s 840ms

Video #0 : MPEG-4 Visual at 967 Kbps
Aspect : 640 x 368 (1.739) at 25.000 fps

Audio #0 : MPEG Audio at 129 Kbps
Infos : 2 kanály, 48,0 KHz

Audio #1 : MPEG Audio at 129 Kbps
Infos : 2 kanály, 48,0 KHz



Fantasy / Sci-Fi
Austrálie / USA, 1999, 88x50 min

Režie: Ian Barry, Peter Andrikidis, Tony Tilse, Rowan Woods, Brendan Maher, Catherine Millar, Ian Watson, Kate Woods, Brian Henson, Karl Zwicky
Hrají: Ben Browder, Claudia Black, Anthony Simcoe, Lani John Tupu, Virginia Hey, Rebecca Riggs, Linda Cropper, Kate Beahan, Jason Clarke, Erika Heynatz, Grant Bowler, Darlene Vogel, Nicholas Hammond, Gigi Edgley, Stephanie Chaves - Jacobsen, Steve Le Marquand, Alyssa-Jane Cook


DOWNLOAD:
serie 1.


serie 2.
Pouze Registrovaní uživatelé mohou prohlížet odkazy v tagu code! Registrujte se anebo se Přihlašte na fórum.


serie 3.
Pouze Registrovaní uživatelé mohou prohlížet odkazy v tagu code! Registrujte se anebo se Přihlašte na fórum.


serie 4. (potom opravim)

Pouze Registrovaní uživatelé mohou prohlížet odkazy v tagu code! Registrujte se anebo se Přihlašte na fórum.

_________________
Obrázek


Naposledy upravil drobec dne 24 zář 2010, 11:51, celkově upraveno 4
Mŕtve linky zmazané


Nahoru 
 Profil  
 
 Předmět příspěvku: Re: Farscape (1999)
 Příspěvek Napsal: 09 lis 2009, 19:10 
Offline
Noví členové fóra

Registrován: 27 led 2009, 17:53
ID Užívateľa: 24344

Online: 0s
Poďakoval: 0 x
Obdržal: 0 x


Částka: Zamknuté


Karma: 0


nemáte někdo česky 1,2,3 serii ?


Nahoru 
 Profil  
 
 Předmět příspěvku: Re: Farscape (1999)
 Příspěvek Napsal: 12 lis 2009, 18:30 
Offline
Noví členové fóra

Registrován: 14 kvě 2008, 16:43
ID Užívateľa: 13401

Online: 0s
Poďakoval: 0 x
Obdržal: 0 x


Částka: Zamknuté


Karma: 0


kouci píše:
nemáte někdo česky 1,2,3 serii ?

našel sem jenom on line stranku http://nemesiskub.webnode.cz/products/farscape/ snad to admin pusti dal jsou tam skoro všechny dily


Nahoru 
 Profil  
 
 Předmět příspěvku: Re: Farscape (1999)
 Příspěvek Napsal: 22 lis 2009, 15:44 
Offline
Uploader

Registrován: 13 črc 2008, 17:42
ID Užívateľa: 16387

Bydliště: 2 bloky od Soundbridge
Online: 0s
Poďakoval: 0 x
Obdržal: 0 x


Částka:
2,000.00



Karma: 0



Medals: 1
kouci píše:
nemáte někdo česky 1,2,3 serii ?

Já mám celé 4 série v češtině v AVI 350MB do pondelí večer to tady máte a ještě k tomu i závěrečnej film(Mírová oprece)

_________________
Obrázek


Nahoru 
 Profil  
 
 Předmět příspěvku: Re: Farscape (1999)
 Příspěvek Napsal: 22 lis 2009, 16:02 
Offline
Noví členové fóra

Registrován: 02 zář 2007, 21:49
ID Užívateľa: 212

Online: 0s
Poďakoval: 0 x
Obdržal: 0 x


Částka: Zamknuté


Karma: 0


dodana 1 serie ostatek dodam
¨

_________________
Obrázek


Nahoru 
 Profil  
 
 Předmět příspěvku: Re: Farscape (1999)
 Příspěvek Napsal: 23 lis 2009, 06:39 
Offline
Uploader

Registrován: 13 črc 2008, 17:42
ID Užívateľa: 16387

Bydliště: 2 bloky od Soundbridge
Online: 0s
Poďakoval: 0 x
Obdržal: 0 x


Částka:
2,000.00



Karma: 0



Medals: 1
Obrázek

Obrázek

Obrázek

OBSAH :
Projekt Farscape právě vstupuje do své poslední fáze, hlavní zodpovědnost teď leží na pilotu raketoplánu Johnu Crichtonovi. Během letu se však stane něco naprosto nečekaného, před raketoplánem se otevře červí díra a Crichton i s lodí se ocitá v neznámé části vesmíru. Neznámé, ale obydlené.

Jeho přílet je velmi dramatický. V jednu chvíli se objeví a v druhé už je účastníkem srážky s jinou kosmickou lodí. Tento kosmický člun v zápětí exploduje. Na jeho palubě umírá bratr jistého Craise, kapitána dobře vyzbrojené armádní lodi. Kapitána mstivého, krutého a nemilosrdného. Crichtonovým útočištěm se zatím stává Moa, obří živočich, který je používán jako kosmická loď. Na její palubě se musí naučit koexistovat s netradiční posádkou, uprchlými trestanci: Ka D'Argem, hrdým a vznětlivým bojovníkem, Pau Zoto Zhaan, rozjímavou kněžkou; Rygelem, údajně vládcem nad 600 miliardami podaných, v reálu pak nenažranou, zbabělou a línou malou potvorou a nakonec Pilotem, bytostí srostlou s lodí, kterou ovládá. Posádku časem doplní ještě militaristicky uvažující Aeryn Sun. Všichni se stávají štvanci a obzvlášť John. Nejen touha po pomstě žene jeho pronásledovatele. Technologie červích děr je totiž neznámá i zde a všichni chápou, že kdo jí první získá, bude mít obrovskou moc, bohatství či slávu. A Crichton je jediné vodítko k jejímu ovládnutí.

Tento seriál se tematicky v mnohém podobá STAR TREKu, nicméně je tu pár zásadních rozdílů. Odehrává se v mnohem temnějším prostředí, neboť nikde blízko není žádná "Federace". Posádka jsou psanci na útěku, kteří jdou z průšvihu do průšvihu a většinu času jim jde o pouhé přežití. Farscape se také v mnoha okamžicích bere dosti nevážně, je laděn komediálněji než STAR TREK. Seriál má celkem 4 série po 22 dílech, místo páté série byl natočen dvoudílný film MÍROVÁ OPERACE (PEACEKEEPER WARS).


Obrázek
General / DVDRIP / Multidubing 2.0CZ - 2.0ENG / Díl cca 373 - 400MB
Citace:
Complete name : K:\Farscape\1\S1E01 - Premiéra.avi
Format : AVI
Format/Info : Audio Video Interleave
File size : 400 MiB
Duration : 50mn 20s
Overall bit rate : 1 110 Kbps
Movie name : AMC
Director : AMC
Subject : AMC
Writing application : VirtualDubMod 1.5.10.1 (build 2366/release)
Writing library : VirtualDubMod build 2366/release
Copyright : AMC

Video
Format : MPEG-4 Visual
Codec ID : DIV3
Codec ID/Hint : DivX 3 Low
Duration : 50mn 20s
Bit rate : 776 Kbps
Width : 512 pixels
Height : 384 pixels
Display aspect ratio : 4/3
Frame rate : 23.976 fps
Resolution : 24 bits
Bits/(Pixel*Frame) : 0.165
Stream size : 280 MiB (70%)

Audio #1
Format : MPEG Audio
Format version : Version 1
Format profile : Layer 3
Codec ID : 55
Codec ID/Hint : MP3
Duration : 50mn 17s
Bit rate mode : Constant
Bit rate : 128 Kbps
Channel(s) : 2 channels
Sampling rate : 48.0 KHz
Resolution : 16 bits
Video delay : 24ms
Stream size : 46.0 MiB (12%)
Alignment : Aligned on interleaves
Interleave, duration : 42 ms (1.00 video frame)
Interleave, preload duration : 504 ms
Writing library : LAME3.96.1

Audio #2
Format : AC-3
Format/Info : Audio Coding 3
Format profile : Dolby Digital
Codec ID : 2000
Duration : 50mn 20s
Bit rate mode : Constant
Bit rate : 192 Kbps
Channel(s) : 2 channels
Channel positions : L R
Sampling rate : 48.0 KHz
Video delay : 30ms
Stream size : 69.1 MiB (17%)
Alignment : Split accross interleaves
Interleave, duration : 42 ms (1.00 video frame)
Interleave, preload duration : 500 ms


1.Série - 22 x 50MIN.
Obrázek

Obrázek
Obrázek
Pouze Registrovaní uživatelé mohou prohlížet odkazy v tagu code! Registrujte se anebo se Přihlašte na fórum.


1. série je komplet...

Obrázek

Obrázek

Pouze Registrovaní uživatelé mohou prohlížet odkazy v tagu code! Registrujte se anebo se Přihlašte na fórum.

_________________
Obrázek


Naposledy upravil drobec dne 24 zář 2010, 11:52, celkově upraveno 1
Mŕtvy link zmazaný


Nahoru 
 Profil  
 
 Předmět příspěvku: Re: Farscape (1999)
 Příspěvek Napsal: 23 lis 2009, 07:05 
Offline
Uploader

Registrován: 13 črc 2008, 17:42
ID Užívateľa: 16387

Bydliště: 2 bloky od Soundbridge
Online: 0s
Poďakoval: 0 x
Obdržal: 0 x


Částka:
2,000.00



Karma: 0



Medals: 1
2. série 22 X 50MIN
Obrázek


Obrázek
Obrázek
Pouze Registrovaní uživatelé mohou prohlížet odkazy v tagu code! Registrujte se anebo se Přihlašte na fórum.


2. série je komplet...

Obrázek

Obrázek

Pouze Registrovaní uživatelé mohou prohlížet odkazy v tagu code! Registrujte se anebo se Přihlašte na fórum.

_________________
Obrázek


Naposledy upravil drobec dne 24 zář 2010, 11:54, celkově upraveno 1
Mŕtve linky zmazané


Nahoru 
 Profil  
 
 Předmět příspěvku: Re: Farscape (1999)
 Příspěvek Napsal: 23 lis 2009, 14:26 
Offline
Uploader

Registrován: 13 črc 2008, 17:42
ID Užívateľa: 16387

Bydliště: 2 bloky od Soundbridge
Online: 0s
Poďakoval: 0 x
Obdržal: 0 x


Částka:
2,000.00



Karma: 0



Medals: 1
3. série 22 X 50MIN
Obrázek


Obrázek
Obrázek
Pouze Registrovaní uživatelé mohou prohlížet odkazy v tagu code! Registrujte se anebo se Přihlašte na fórum.


3. série je komplet...

Obrázek

Obrázek

Pouze Registrovaní uživatelé mohou prohlížet odkazy v tagu code! Registrujte se anebo se Přihlašte na fórum.

_________________
Obrázek


Naposledy upravil drobec dne 24 zář 2010, 11:55, celkově upraveno 1
Mŕtve linky zmazané


Nahoru 
 Profil  
 
 Předmět příspěvku: Re: Farscape (1999)
 Příspěvek Napsal: 23 lis 2009, 14:34 
Offline
Uploader

Registrován: 13 črc 2008, 17:42
ID Užívateľa: 16387

Bydliště: 2 bloky od Soundbridge
Online: 0s
Poďakoval: 0 x
Obdržal: 0 x


Částka:
2,000.00



Karma: 0



Medals: 1
4. série 22 X 50MIN
Obrázek


Obrázek
Obrázek
Pouze Registrovaní uživatelé mohou prohlížet odkazy v tagu code! Registrujte se anebo se Přihlašte na fórum.


4. série je komplet...

Obrázek

Obrázek

Pouze Registrovaní uživatelé mohou prohlížet odkazy v tagu code! Registrujte se anebo se Přihlašte na fórum.

_________________
Obrázek


Naposledy upravil drobec dne 24 zář 2010, 11:56, celkově upraveno 1
Mŕtve linky zmazané


Nahoru 
 Profil  
 
 Předmět příspěvku: Re: Farscape (1999)
 Příspěvek Napsal: 23 lis 2009, 14:44 
Offline
Uploader

Registrován: 13 črc 2008, 17:42
ID Užívateľa: 16387

Bydliště: 2 bloky od Soundbridge
Online: 0s
Poďakoval: 0 x
Obdržal: 0 x


Částka:
2,000.00



Karma: 0



Medals: 1
Závěrečný film / Farscape - Mírová operace (EN + CZ subs) Bohužel v CZ zatím není.!
Obrázek

Obrázek


Obrázek
General / DVDRIP / 2x700MB
Citace:
Complete name : K:\Farscape\Farscape-The.Peacekeeper.Wars.2004.DVDRip.XviD-RIVER.CD1.avi
Complete name : K:\Farscape\Farscape-The.Peacekeeper.Wars.2004.DVDRip.XviD-RIVER.CD2.avi
Format : AVI
Format/Info : Audio Video Interleave
File size : 700 MiB
Duration : 1h 30mn
Overall bit rate : 1 087 Kbps
Writing application : VirtualDubMod 1.5.10.1 (build 2439/release)
Writing library : VirtualDubMod build 2439/release

Video
Format : MPEG-4 Visual
Format profile : Streaming Video@L1
Format settings, BVOP : Yes
Format settings, QPel : No
Format settings, GMC : No warppoints
Format settings, Matrix : Default
Muxing mode : Packed bitstream
Codec ID : XVID
Codec ID/Hint : XviD
Duration : 1h 30mn
Bit rate : 925 Kbps
Width : 640 pixels
Height : 352 pixels
Display aspect ratio : 16/9
Frame rate : 23.976 fps
Resolution : 24 bits
Colorimetry : 4:2:0
Scan type : Progressive
Bits/(Pixel*Frame) : 0.171
Stream size : 596 MiB (85%)
Writing library : XviD 1.0.2 (UTC 2004-08-29)

Audio
Format : MPEG Audio
Format version : Version 1
Format profile : Layer 3
Codec ID : 55
Codec ID/Hint : MP3
Duration : 1h 30mn
Bit rate mode : Variable
Bit rate : 149 Kbps
Nominal bit rate : 160 Kbps
Channel(s) : 2 channels
Sampling rate : 48.0 KHz
Resolution : 16 bits
Stream size : 96.1 MiB (14%)
Alignment : Aligned on interleaves
Interleave, duration : 24 ms (0.58 video frame)
Interleave, preload duration : 488 ms
Writing library : LAME3.90.
Encoding settings : ABR



Obrázek
Obrázek
Pouze Registrovaní uživatelé mohou prohlížet odkazy v tagu code! Registrujte se anebo se Přihlašte na fórum.


Tak tento film zakončuje celý seriál FARSCAPE...příjemné sosání...!!!

Obrázek

Obrázek

Pouze Registrovaní uživatelé mohou prohlížet odkazy v tagu code! Registrujte se anebo se Přihlašte na fórum.

_________________
Obrázek


Nahoru 
 Profil  
 
Zobrazit příspěvky za předchozí:  Seřadit podle  
 
Odeslat nové téma Odpovědět na téma  [ Příspěvků: 14 ]  Přejít na stránku 1, 2  Další

Obsah fóra » Filmy download » Seriály » Seriály CZ/SK dubbing


 
Nemůžete zakládat nová témata v tomto fóru
Nemůžete odpovídat v tomto fóru
Nemůžete upravovat své příspěvky v tomto fóru
Nemůžete mazat své příspěvky v tomto fóru
Nemůžete přikládat soubory v tomto fóru

Hledat:
Přejít na:  







TOPlist
Český překlad – phpBB.cz
Karma functions powered by Karma MOD © 2007, 2009 m157y
phpBB SEO



..:: Žádný ze zobrazených souborů, které můžete nalézt na tomto fóru, nejsou umístěny na tomto serveru. Autoři stránky nenesou zodpovědnost za příspěvky odeslané užívateli,ani za jejich další akce,které by mohli vést k porušování zákonů. Za své příspěvky zodpovídají uživatelé. Nepoužívejte tyto stránky k distribuci a nebo k downloadu jakýchkoliv materiálů, ke kterým nemáte legální oprávnění a nebo licenci ::..