Vítejte na stránkách . Klikněte zde pro registraci

Uživatelské jméno:   Heslo:   Pamätat si ma  Skrýt můj online stav 
Registrovat    Přihlásit se    Fórum    Hledat    FAQ
Bannery     Kontakt   


Informační Panel






www.centralwar.eu
www.centralwar.eu

Obsah fóra » Filmy download » Seriály » Seriály CZ/SK dubbing




Odeslat nové téma Odpovědět na téma  [ Příspěvek: 1 ] 
Autor Zpráva
 Předmět příspěvku: Znamení koně (2011) CZ
 Příspěvek Napsal: 16 dub 2016, 18:14 
Offline
Registrovaní uživatelé

Registrován: 27 led 2016, 19:28
ID Užívateľa: 65951

Online: 14d 10h 25m 41s
Poďakoval: 0 x
Obdržal: 1 x


Částka:
5,240.00



Karma: 0


Znamení koně (2011)
Séria: 01
HDTVRip 720p


Obrázek

CSFD / IMDB
Pouze Registrovaní uživatelé mohou prohlížet odkazy v tagu code! Registrujte se anebo se Přihlašte na fórum.


INFO
Časti 1-10 info (časti 11 a 12 bitraty totožné, ale formát .flv, časť 13 je v rozlíšení 720x404):
Citace:
Format : Matroska
Format version : Version 2
File size : 1.46 GiB
Duration : 51mn 31s
Overall bit rate : 4 045 Kbps

Video
Format : AVC
Format profile : High@L4.1
Duration : 51mn 31s
Bit rate : 3 599 Kbps
Width : 1 280 pixels
Height : 720 pixels
Display aspect ratio : 16:9
Frame rate mode : Constant
Frame rate : 25.000 fps
Color space : YUV
Chroma subsampling : 4:2:0
Bit depth : 8 bits
Scan type : Progressive
Bits/(Pixel*Frame) : 0.156
Stream size : 1.27 GiB (87%)

Audio
Format : AC-3
Duration : 51mn 31s
Bit rate mode : Constant
Bit rate : 448 Kbps
Channel(s) : 2 channels
Channel positions : Front: L R
Sampling rate : 48.0 KHz
Bit depth : 16 bits
Compression mode : Lossy
Delay relative to video : 64ms
Stream size : 165 MiB (11%)
Language : Czech
Default : Yes
Forced : No


FASTSHARE
Pouze Registrovaní uživatelé mohou prohlížet odkazy v tagu code! Registrujte se anebo se Přihlašte na fórum.


Naposledy upravil Sonty1 dne 02 led 2020, 15:40, celkově upraveno 2

Nahoru 
 Profil  
 
Zobrazit příspěvky za předchozí:  Seřadit podle  
 
Odeslat nové téma Odpovědět na téma  [ Příspěvek: 1 ] 

Obsah fóra » Filmy download » Seriály » Seriály CZ/SK dubbing


 
Nemůžete zakládat nová témata v tomto fóru
Nemůžete odpovídat v tomto fóru
Nemůžete upravovat své příspěvky v tomto fóru
Nemůžete mazat své příspěvky v tomto fóru
Nemůžete přikládat soubory v tomto fóru

Hledat:
Přejít na:  







cron
TOPlist
Český překlad – phpBB.cz
Karma functions powered by Karma MOD © 2007, 2009 m157y
phpBB SEO



..:: Žádný ze zobrazených souborů, které můžete nalézt na tomto fóru, nejsou umístěny na tomto serveru. Autoři stránky nenesou zodpovědnost za příspěvky odeslané užívateli,ani za jejich další akce,které by mohli vést k porušování zákonů. Za své příspěvky zodpovídají uživatelé. Nepoužívejte tyto stránky k distribuci a nebo k downloadu jakýchkoliv materiálů, ke kterým nemáte legální oprávnění a nebo licenci ::..