Vítejte na stránkách . Klikněte zde pro registraci

Uživatelské jméno:   Heslo:   Pamätat si ma  Skrýt můj online stav 
Registrovat    Přihlásit se    Fórum    Hledat    FAQ
Bannery     Kontakt   


Informační Panel

:welcome:




www.centralwar.eu
www.centralwar.eu

Obsah fóra » Filmy download » Filmy Originál / s titulky+novinky (Premiéry)


Pravidla fóra


Vkládejte do této sekce filmy s původním názvem / cz název (rok)



Odeslat nové téma Odpovědět na téma  [ Příspěvek: 1 ] 
Autor Zpráva
 Předmět příspěvku: Zimna wojna / Studená válka (2018)
 Příspěvek Napsal: 12 lis 2018, 22:55 
Online
Registrovaní uživatelé
Uživatelský avatar

Registrován: 23 kvě 2010, 09:37
ID Užívateľa: 38343

Online: 82d 16h 31m 7s
Poďakoval: 1 x
Obdržal: 2 x


Částka:
25,558.80



Karma: 0


Obrázek

Pouze Registrovaní uživatelé mohou prohlížet odkazy v tagu code! Registrujte se anebo se Přihlašte na fórum.


Drama / Romantický
Polsko / Francie / Velká Británie, 2018, 89 min

Režie: Paweł Pawlikowski
Scénář: Paweł Pawlikowski
Kamera: Łukasz Żal
Hrají: Joanna Kulig, Tomasz Kot, Agata Kulesza, Borys Szyc, Adam Ferency

V období budování stalinského Polska, ale také moderní západní Evropy se odehrává příběh velké osudové lásky zpěvačky Zuly a skladatele Wiktora. Nedokážou žít spolu, ale zároveň se fatálně přitahují a nevydrží být bez sebe. V kulisách Varšavy, Berlína a Paříže zní jazzová a folklorní hudba a Zula s Wiktorem rozehrávají nádhernou, ale hořkou baladu, svoji vlastní studenou válku. Kunderovsky laděným milostným eposem navazuje Pawel Pawlikowski na úspěch oscarové Idy. Za dílo nabité elektrizující hudbou i obrazovou krásou byl na festivalu v Cannes odměněn Cenou za nejlepší režii.


Obrázek

File size : 13.8 GiB
Duration : 1 h 28 min
Overall bit rate : 22.4 Mb/s

Video
Format : AVC
Format profile : High@L4.1
Format settings : CABAC / 4 Ref Frames
Codec ID : V_MPEG4/ISO/AVC
Bit rate : 20.8 Mb/s
Width : 1 440 pixels
Height : 1 080 pixels
Display aspect ratio : 4:3
Frame rate : 24.000 FPS


Audio #1
Format : DTS
Bit rate : 1 509 kb/s
Channel(s) : 6 channels
Channel positions : Front: L C R, Side: L R, LFE
Sampling rate : 48.0 kHz
Frame rate : 93.750 FPS (512 SPF)
Bit depth : 24 bits
Compression mode : Lossy
Stream size : 950 MiB (7%)
Title : Polish / Digital Theater Systems / 5.1 / 48 kHz / 1509 kbps / 24-bit


Audio #2
Format : AAC
Bit rate : 64.0 kb/s
Channel(s) : 2 channels
Channel positions : Front: L R
Sampling rate : 48.0 kHz
Frame rate : 46.875 FPS (1024 SPF)
Compression mode : Lossy
Delay relative to video : 21 ms
Stream size : 40.3 MiB (0%)
Title : Commentary
Language : Polish

Language : Czech
Language : English
Language : Polish


1 link

Pouze Registrovaní uživatelé mohou prohlížet odkazy v tagu code! Registrujte se anebo se Přihlašte na fórum.


3x rar

Pouze Registrovaní uživatelé mohou prohlížet odkazy v tagu code! Registrujte se anebo se Přihlašte na fórum.


Nahoru 
 Profil  
 
Zobrazit příspěvky za předchozí:  Seřadit podle  
 
Odeslat nové téma Odpovědět na téma  [ Příspěvek: 1 ] 

Obsah fóra » Filmy download » Filmy Originál / s titulky+novinky (Premiéry)


 
Nemůžete zakládat nová témata v tomto fóru
Nemůžete odpovídat v tomto fóru
Nemůžete upravovat své příspěvky v tomto fóru
Nemůžete mazat své příspěvky v tomto fóru
Nemůžete přikládat soubory v tomto fóru

Hledat:
Přejít na:  







TOPlist
Český překlad – phpBB.cz
Karma functions powered by Karma MOD © 2007, 2009 m157y
phpBB SEO



..:: Žádný ze zobrazených souborů, které můžete nalézt na tomto fóru, nejsou umístěny na tomto serveru. Autoři stránky nenesou zodpovědnost za příspěvky odeslané užívateli,ani za jejich další akce,které by mohli vést k porušování zákonů. Za své příspěvky zodpovídají uživatelé. Nepoužívejte tyto stránky k distribuci a nebo k downloadu jakýchkoliv materiálů, ke kterým nemáte legální oprávnění a nebo licenci ::..