Vítejte na stránkách . Klikněte zde pro registraci

Uživatelské jméno:   Heslo:   Pamätat si ma  Skrýt můj online stav 
Registrovat    Přihlásit se    Fórum    Hledat    FAQ
Bannery     Kontakt   


Informační Panel

wel




www.centralwar.eu
www.centralwar.eu

Obsah fóra » Filmy download » Filmy Originál / s titulky+novinky (Premiéry)


Pravidla fóra


Vkládejte do této sekce filmy s původním názvem / cz název (rok)



Odeslat nové téma Odpovědět na téma  [ Příspěvků: 2 ] 
Autor Zpráva
 Předmět příspěvku: The Sisters Brothers / The Sisters Brothers (2018)
 Příspěvek Napsal: 28 pro 2018, 21:37 
Offline
Registrovaní uživatelé

Registrován: 24 pro 2018, 09:57
ID Užívateľa: 66994

Online: 24d 5h 53m 24s
Poďakoval: 0 x
Obdržal: 0 x


Částka:
3,020.75



Karma: 0


The Sisters Brothers / 2018

Pouze Registrovaní uživatelé mohou prohlížet odkazy v tagu code! Registrujte se anebo se Přihlašte na fórum.


Obrázek

The.Sisters.Brothers.2018.WEB-DL.RMX.DD.5.1.X264-MTK.mkv 1,3Gb

video: 720 x 304
audio: 5.1 EN
titulky: CZ


Format : Matroska at 1 470 kb/s
Length : 1,25 GiB for 2 h 1 min 45 sek. 277 ms
Video #0 : AVC at 1 100 kb/s
Aspect : 720 x 304 (2.401) at 23.976 fps
Audio #0 : AC-3 at 384 kb/s
Infos : 6 kanálov, 48,0 kHz
Language : en
Text #0 : UTF-8
Language : cs


Pouze Registrovaní uživatelé mohou prohlížet odkazy v tagu code! Registrujte se anebo se Přihlašte na fórum.


Naposledy upravil Stanley dne 28 pro 2018, 23:55, celkově upraveno 1
Oprava názvu tématu


Nahoru 
 Profil  
 
 Předmět příspěvku: The Sisters Brothers / The Sisters Brothers (2018)
 Příspěvek Napsal: 07 bře 2019, 15:04 
Offline
Registrovaní uživatelé

Registrován: 04 pro 2015, 22:42
ID Užívateľa: 65833

Online: 9d 5h 42m 26s
Poďakoval: 0 x
Obdržal: 1 x


Částka:
4,403.50



Karma: 0


Obrázek

info

Pouze Registrovaní uživatelé mohou prohlížet odkazy v tagu code! Registrujte se anebo se Přihlašte na fórum.


Citace:
Charlie (Joaquin Phoenix) a Eli (John C. Reilly) žijí své životy v divokém a nepřátelském světě. Na rukou jim ulpěla krev zločinců i nevinných lidí... Nemají žádné skrupule, pokud jde o zabíjení. Je to jejich job. Charlie, mladší bratr, se zdá jako by byl zrozen pro zabíjení. Eli však sní o normálním životě. Oba jsou najati Commodorem (Rutger Hauer), aby našli a zabili člověka. Začíná nemilosrdná honička z Oregonu do Kalifornie, klíčová cesta, které má otestovat šílené pouto mezi dvěma sourozenci. Anebo cesta, která povede k jejich zlidštění?(mac000)


kvalita

Citace:
General
Complete name : E:\up\2\The.Sisters.Brothers.2018.WEB-DL.RMX.DD.5.1.X264-MTK.mp4
Format : MPEG-4
Format profile : Base Media
Codec ID : isom
File size : 449 MiB
Duration : 2h 1mn
Overall bit rate : 516 Kbps
Movie name : The Sisters Brothers - RMX - 2018 - MTK
Writing application : Lavf57.41.100

Video
ID : 1
Format : AVC
Format/Info : Advanced Video Codec
Format profile : High@L2.1
Format settings, CABAC : Yes
Format settings, ReFrames : 4 frames
Codec ID : avc1
Codec ID/Info : Advanced Video Coding
Duration : 2h 1mn
Bit rate : 384 Kbps
Width : 480 pixels
Height : 360 pixels
Display aspect ratio : 2.40:1
Frame rate mode : Constant
Frame rate : 23.976 fps
Color space : YUV
Chroma subsampling : 4:2:0
Bit depth : 8 bits
Scan type : Progressive
Bits/(Pixel*Frame) : 0.093
Stream size : 331 MiB (74%)
Title : x264 720x304 12/5
Writing library : x264 core 148
Encoding settings : cabac=1 / ref=3 / deblock=1:0:0 / analyse=0x3:0x113 / me=hex / subme=7 / psy=1 / psy_rd=1.00:0.00 / mixed_ref=1 / me_range=16 / chroma_me=1 / trellis=1 / 8x8dct=1 / cqm=0 / deadzone=21,11 / fast_pskip=1 / chroma_qp_offset=-2 / threads=6 / lookahead_threads=1 / sliced_threads=0 / nr=0 / decimate=1 / interlaced=0 / bluray_compat=0 / constrained_intra=0 / bframes=3 / b_pyramid=2 / b_adapt=1 / b_bias=0 / direct=1 / weightb=1 / open_gop=0 / weightp=2 / keyint=250 / keyint_min=23 / scenecut=40 / intra_refresh=0 / rc_lookahead=40 / rc=abr / mbtree=1 / bitrate=384 / ratetol=1.0 / qcomp=0.60 / qpmin=0 / qpmax=69 / qpstep=4 / ip_ratio=1.40 / aq=1:1.00
Language : English

Audio
ID : 2
Format : AAC
Format/Info : Advanced Audio Codec
Format profile : LC
Codec ID : 40
Duration : 2h 1mn
Duration_LastFrame : -5ms
Bit rate mode : Constant
Bit rate : 132 Kbps
Channel(s) : 2 channels
Channel positions : Front: L R
Sampling rate : 44.1 KHz
Compression mode : Lossy
Stream size : 113 MiB (25%)
Title : ac3 48000Hz 6Ch.
Language : English

Menu #1
ID : 3
Codec ID : text
Duration : 2h 1mn
Language : English
00:00:00.000 : Chapter 1
00:07:23.000 : Chapter 2
00:12:30.000 : Chapter 3
00:18:06.000 : Chapter 4
00:25:10.000 : Chapter 5
00:30:26.000 : Chapter 6
00:35:36.000 : Chapter 7
00:42:06.000 : Chapter 8
00:49:34.000 : Chapter 9
00:55:08.000 : Chapter 10
01:00:22.000 : Chapter 11
01:07:03.000 : Chapter 12
01:12:06.000 : Chapter 13
01:18:05.000 : Chapter 14
01:23:06.000 : Chapter 15
01:29:15.000 : Chapter 16
01:36:54.000 : Chapter 17
01:42:39.000 : Chapter 18
01:48:19.000 : Chapter 19
01:54:18.000 : Chapter 20
Bit rate mode : VBR

Menu #2
00:00:00.000 : Chapter 1
00:07:23.000 : Chapter 2
00:12:30.000 : Chapter 3
00:18:06.000 : Chapter 4
00:25:10.000 : Chapter 5
00:30:26.000 : Chapter 6
00:35:36.000 : Chapter 7
00:42:06.000 : Chapter 8
00:49:34.000 : Chapter 9
00:55:08.000 : Chapter 10
01:00:22.000 : Chapter 11
01:07:03.000 : Chapter 12
01:12:06.000 : Chapter 13
01:18:05.000 : Chapter 14
01:23:06.000 : Chapter 15
01:29:15.000 : Chapter 16
01:36:54.000 : Chapter 17
01:42:39.000 : Chapter 18
01:48:19.000 : Chapter 19
01:54:18.000 : Chapter 20


download

Pouze Registrovaní uživatelé mohou prohlížet odkazy v tagu code! Registrujte se anebo se Přihlašte na fórum.


Nahoru 
 Profil  
 
Zobrazit příspěvky za předchozí:  Seřadit podle  
 
Odeslat nové téma Odpovědět na téma  [ Příspěvků: 2 ] 

Obsah fóra » Filmy download » Filmy Originál / s titulky+novinky (Premiéry)


 
Nemůžete zakládat nová témata v tomto fóru
Nemůžete odpovídat v tomto fóru
Nemůžete upravovat své příspěvky v tomto fóru
Nemůžete mazat své příspěvky v tomto fóru
Nemůžete přikládat soubory v tomto fóru

Hledat:
Přejít na:  







TOPlist
Český překlad – phpBB.cz
Karma functions powered by Karma MOD © 2007, 2009 m157y
phpBB SEO



..:: Žádný ze zobrazených souborů, které můžete nalézt na tomto fóru, nejsou umístěny na tomto serveru. Autoři stránky nenesou zodpovědnost za příspěvky odeslané užívateli,ani za jejich další akce,které by mohli vést k porušování zákonů. Za své příspěvky zodpovídají uživatelé. Nepoužívejte tyto stránky k distribuci a nebo k downloadu jakýchkoliv materiálů, ke kterým nemáte legální oprávnění a nebo licenci ::..