Vítejte na stránkách . Klikněte zde pro registraci

Uživatelské jméno:   Heslo:   Pamätat si ma  Skrýt můj online stav 
Registrovat    Přihlásit se    Fórum    Hledat    FAQ
Bannery     Kontakt   


Informační Panel






www.centralwar.eu
www.centralwar.eu

Obsah fóra » Filmy download » Filmy Originál / s titulky+novinky (Premiéry)


Pravidla fóra


Vkládejte do této sekce filmy s původním názvem / cz název (rok)



Odeslat nové téma Odpovědět na téma  [ Příspěvek: 1 ] 
Autor Zpráva
 Předmět příspěvku: Bullets Over Broadway / Výstřely na Broadwayi (1994)
 Příspěvek Napsal: 23 čer 2019, 10:46 
Offline
Registrovaní uživatelé

Registrován: 04 pro 2015, 22:42
ID Užívateľa: 65833

Online: 12d 10h 25m 27s
Poďakoval: 0 x
Obdržal: 1 x


Částka:
7,465.10



Karma: 0


Obrázek

info

Pouze Registrovaní uživatelé mohou prohlížet odkazy v tagu code! Registrujte se anebo se Přihlašte na fórum.


Citace:
Gangsterská retrokomedie Výstřely na Broadwayi je v tvorbě Woodyho Allena určitou odbočkou. Známý americký komediograf se i zde zabývá newyorským intelektuálským prostředím (který tu reprezentují osoby spjaté s divadlem), ale konfrontuje ho s drsnou realitou gangsterského polosvěta. Navíc svůj příběh, na jehož scénáři nepracoval sám, ale s bývalým novinářem Douglasem McGrathem, zasadil do dvacátých let a sám v něm herecky nevystupuje. Mladý divadelní autor David Shayne (John Cusack jako Allenovo alter ego) se zoufale snaží prosadit se svojí novou hrou, na niž nemůže sehnat finance, a tak uzavře faustovskou smlouvu s mafiánem Nickem Valentim (Joe Viterelli), který je ochoten poskytnout potřebné prostředky za drobnou službu – jeho nová milenka, ukřičená sboristka Olive (Jennifer Tillyová), totiž touží po jevištní kariéře. Bouřlivě probíhající zkoušky nového kusu, jež bedlivě sleduje Olivin bodyguard Cheech (Chazz Palminteri), komplikuje především účast herecké primadony Helen Sinclairové (Dianne Wiestová), která neustále mění svůj text. Zabiják Cheech projeví nečekané dramatické nadání a začne Davidovi upravovat dialogy i děj podle životní reality, kterou sám zná. Navíc i jemu rychle dojde, že Olive na svoji roli v žádném případě nestačí, a rozhodne se pro radikální řešení. I přes lehkou, veseloherní notu se Allen několikrát dotkne vážnějších problémů, jako např. co je to vlastně umění (Jestli prostý člověk nerozumí tvému dílu, jsi génius!) nebo jak dalece lze ohnout umělcovo svědomí.(Česká televize)


kvalita

Citace:
Video
ID : 1
Format : AVC
Format/Info : Advanced Video Codec
Format profile : High@L3
Format settings, CABAC : Yes
Format settings, ReFrames : 4 frames
Codec ID : avc1
Codec ID/Info : Advanced Video Coding
Duration : 1h 34mn
Bit rate : 304 Kbps
Width : 640 pixels
Height : 360 pixels
Display aspect ratio : 16:9
Frame rate mode : Constant
Frame rate : 25.000 fps
Color space : YUV
Chroma subsampling : 4:2:0
Bit depth : 8 bits
Scan type : Progressive
Bits/(Pixel*Frame) : 0.053
Stream size : 203 MiB (69%)
Writing library : x264 core 148
Encoding settings : cabac=1 / ref=3 / deblock=1:0:0 / analyse=0x3:0x113 / me=hex / subme=7 / psy=1 / psy_rd=1.00:0.00 / mixed_ref=1 / me_range=16 / chroma_me=1 / trellis=1 / 8x8dct=1 / cqm=0 / deadzone=21,11 / fast_pskip=1 / chroma_qp_offset=-2 / threads=6 / lookahead_threads=1 / sliced_threads=0 / nr=0 / decimate=1 / interlaced=0 / bluray_compat=0 / constrained_intra=0 / bframes=3 / b_pyramid=2 / b_adapt=1 / b_bias=0 / direct=1 / weightb=1 / open_gop=0 / weightp=2 / keyint=250 / keyint_min=25 / scenecut=40 / intra_refresh=0 / rc_lookahead=40 / rc=abr / mbtree=1 / bitrate=304 / ratetol=1.0 / qcomp=0.60 / qpmin=0 / qpmax=69 / qpstep=4 / ip_ratio=1.40 / aq=1:1.00

Audio
ID : 2
Format : AAC
Format/Info : Advanced Audio Codec
Format profile : LC
Codec ID : 40
Duration : 1h 34mn
Duration_LastFrame : -8ms
Bit rate mode : Constant
Bit rate : 128 Kbps
Channel(s) : 2 channels
Channel positions : Front: L R
Sampling rate : 44.1 KHz
Compression mode : Lossy
Stream size : 86.8 MiB (29%)
Language : English


download

Pouze Registrovaní uživatelé mohou prohlížet odkazy v tagu code! Registrujte se anebo se Přihlašte na fórum.


Nahoru 
 Profil  
 
Zobrazit příspěvky za předchozí:  Seřadit podle  
 
Odeslat nové téma Odpovědět na téma  [ Příspěvek: 1 ] 

Obsah fóra » Filmy download » Filmy Originál / s titulky+novinky (Premiéry)


 
Nemůžete zakládat nová témata v tomto fóru
Nemůžete odpovídat v tomto fóru
Nemůžete upravovat své příspěvky v tomto fóru
Nemůžete mazat své příspěvky v tomto fóru
Nemůžete přikládat soubory v tomto fóru

Hledat:
Přejít na:  







TOPlist
Český překlad – phpBB.cz
Karma functions powered by Karma MOD © 2007, 2009 m157y
phpBB SEO



..:: Žádný ze zobrazených souborů, které můžete nalézt na tomto fóru, nejsou umístěny na tomto serveru. Autoři stránky nenesou zodpovědnost za příspěvky odeslané užívateli,ani za jejich další akce,které by mohli vést k porušování zákonů. Za své příspěvky zodpovídají uživatelé. Nepoužívejte tyto stránky k distribuci a nebo k downloadu jakýchkoliv materiálů, ke kterým nemáte legální oprávnění a nebo licenci ::..