Vítejte na stránkách . Klikněte zde pro registraci

Uživatelské jméno:   Heslo:   Pamätat si ma  Skrýt můj online stav 
Registrovat    Přihlásit se    Fórum    Hledat    FAQ
Bannery     Kontakt   


Informační Panel

Screeny,které budou nad klasickou velikost,půjdou do koše!!! gb




www.centralwar.eu
www.centralwar.eu

Obsah fóra » Filmy download » Filmy Originál / s titulky+novinky (Premiéry)


Pravidla fóra


Vkládejte do této sekce filmy s původním názvem / cz název (rok)



Odeslat nové téma Odpovědět na téma  [ Příspěvek: 1 ] 
Autor Zpráva
 Předmět příspěvku: Great Dictator, The / Diktátor (1940)
 Příspěvek Napsal: 30 srp 2019, 18:03 
Offline
Registrovaní uživatelé

Registrován: 27 led 2016, 19:28
ID Užívateľa: 65951

Online: 12d 12h 34m 2s
Poďakoval: 0 x
Obdržal: 1 x


Částka:
4,411.25



Karma: 0


Great Dictator, The / Diktátor (1940)

Video/Zdroj: DVDRip
Audio: EN MP3 2ch
Titulky: CZ v obraze


Obrázek

CSFD / IMDB
Pouze Registrovaní uživatelé mohou prohlížet odkazy v tagu code! Registrujte se anebo se Přihlašte na fórum.


INFO
Citace:
Format : AVI
File size : 1.23 GiB
Duration : 2 h 3 min
Overall bit rate : 1 432 kb/s

Video
Format : MPEG-4 Visual
Codec ID/Hint : XviD
Duration : 2 h 3 min
Bit rate : 1 301 kb/s
Width : 720 pixels
Height : 544 pixels
Display aspect ratio : 4:3
Frame rate : 25.000 FPS
Color space : YUV
Chroma subsampling : 4:2:0
Bit depth : 8 bits
Scan type : Progressive
Compression mode : Lossy
Bits/(Pixel*Frame) : 0.133
Stream size : 1.12 GiB (91%)

Audio
Format : MPEG Audio
Codec ID/Hint : MP3
Duration : 1 h 59 min
Bit rate mode : Constant
Bit rate : 128 kb/s
Channel(s) : 2 channels
Sampling rate : 48.0 kHz
Compression mode : Lossy
Delay relative to video : 216 ms
Stream size : 110 MiB (9%)
Alignment : Aligned on interleaves
Interleave, duration : 82 ms (2.06 video frames)
Interleave, preload duratio : 504 ms
Language : English


FASTSHARE

Pouze Registrovaní uživatelé mohou prohlížet odkazy v tagu code! Registrujte se anebo se Přihlašte na fórum.


Naposledy upravil Sonty1 dne 30 srp 2019, 18:04, celkově upraveno 1

Nahoru 
 Profil  
 
Zobrazit příspěvky za předchozí:  Seřadit podle  
 
Odeslat nové téma Odpovědět na téma  [ Příspěvek: 1 ] 

Obsah fóra » Filmy download » Filmy Originál / s titulky+novinky (Premiéry)


 
Nemůžete zakládat nová témata v tomto fóru
Nemůžete odpovídat v tomto fóru
Nemůžete upravovat své příspěvky v tomto fóru
Nemůžete mazat své příspěvky v tomto fóru
Nemůžete přikládat soubory v tomto fóru

Hledat:
Přejít na:  







TOPlist
Český překlad – phpBB.cz
Karma functions powered by Karma MOD © 2007, 2009 m157y
phpBB SEO



..:: Žádný ze zobrazených souborů, které můžete nalézt na tomto fóru, nejsou umístěny na tomto serveru. Autoři stránky nenesou zodpovědnost za příspěvky odeslané užívateli,ani za jejich další akce,které by mohli vést k porušování zákonů. Za své příspěvky zodpovídají uživatelé. Nepoužívejte tyto stránky k distribuci a nebo k downloadu jakýchkoliv materiálů, ke kterým nemáte legální oprávnění a nebo licenci ::..