Vítejte na stránkách . Klikněte zde pro registraci

Uživatelské jméno:   Heslo:   Pamätat si ma  Skrýt můj online stav 
Registrovat    Přihlásit se    Fórum    Hledat    FAQ
Bannery     Kontakt   


Informační Panel

Forum je na prodej,v případě zájmu pište zde contact.php




www.centralwar.eu
www.centralwar.eu

Obsah fóra » Filmy download » HD filmy a jiné » HD filmy cz/sk




Odeslat nové téma Odpovědět na téma  [ Příspěvků: 2 ] 
Autor Zpráva
 Předmět příspěvku: Vlajky našich otců / Flags of Our Fathers (2006)
 Příspěvek Napsal: 19 říj 2011, 04:02 
Offline
V.I.P
Uživatelský avatar

Registrován: 22 dub 2010, 20:27
ID Užívateľa: 37478

Online: 1d 22h 21m 25s
Poďakoval: 0 x
Obdržal: 2 x


Částka:
16,235.45



Karma: 0



Medals: 2
Název: Vlajky našich otců / Flags of Our Fathers (2006)

Zdroj: Flags.of.Our.Fathers.2006.BluRay.1080p.DTS.AC3.x264.dxva-EuReKA.CZ.EN

Obrázek

Obrázek


Obrázek

Pouze Registrovaní uživatelé mohou prohlížet odkazy v tagu code! Registrujte se anebo se Přihlašte na fórum.


Obrázek


Citace:
Válečný / Drama / Akční / Historický
USA, 2006, 126 min


Režie: Clint Eastwood
Hudba: Clint Eastwood
Hrají: Ryan Phillippe, Jesse Bradford, Adam Beach, John Slattery, Barry Pepper, Jamie Bell, Paul Walker, Robert Patrick, Neal McDonough, Melanie Lynskey, Thomas McCarthy, Chris Bauer, Judith Ivey, Joseph Cross, Stark Sands, Len Cariou, Harve Presnell, George Hearn, Mary Beth Peil, David Patrick Kelly, Jon Polito, Gordon Clapp, Tom Verica, David Rasche, Patrick Dollaghan, Jayma Mays, Scott Reeves, James Horan, Silas Weir Mitchell, Daniel Forcey, Jeremiah Bitsui, Beth Grant, Shannon Gayle, Jason Gray-Stanford, Dale Waddington Horowitz, Ali Costello, Scott Eastwood, Nevin Millan, Michael Ahl, Benjamin Walker, Kirk B. R. Woller, George Grizzard


Držitel Oscara, režisér Clint Eastwood (Million Dollar Baby, Nesmiřitelní) přichází s dramatem z období 2. světové války Flags of Our Fathers, které s ním spoluprodukuje držitel Oscara Steven Spielberg (Zachraňte vojína Ryana, Schindlerův seznam). Únor 1945. Vítězství v Evropě je na dosah, ale boje v Tichomoří neustále pokračují. Jedna z nejzásadnějších a nejkrvavějších bitev celého konfliktu byla o ostrov Iwo Jima. Dobývání vyvrcholilo scénou, kterou dodnes zachycuje jedna z nejikoničtějších fotografií dějin – pět vojáků námořní pěchoty a námořní poddůstojník vztyčuje na hoře Suribači americkou vlajku. Foto zachycující tuto jedinečnou chvíli, se stalo symbolem vítězství národa, který se utužil v bojích. Tato šestice vojáků je dnes považována za pravé hrdiny. Někteří z nich však zakrátko položili své životy, aniž by jen tušili, že je těchto několik chvil učinilo nesmrtelnými. Ti, kteří přežili, se za hrdiny nepovažovali. Jejich nejniternějším cílem bylo, stát v jedné řadě s ostatními bojovníky, jimž se fanfár či slávy nedostalo. Kniha Flags of Our Fathers vzešla z per Jamese Bradelyho a Rona Powerse, kteří zaznamenávají historii bitvy o Iwo Jimu a popisují osudy šestice vojáků a některých jejich bratrů z roty Easy Company. Bradleyho otec, John “Doc” Bradley, je jedním ze šestice vojáků zachycených na fotografii, ale sám autor knihy až do otcovy smrti v roce 1994 neznal plné pozadí jeho válečné zkušenosti… (oficiální text distributora)

Format : Matroska
File size : 8.22 GiB
Duration : 2h 11mn
Overall bit rate : 8 921 Kbps
Encoded date : UTC 2011-06-19 13:21:13
Writing application : mkvmerge v3.0.0 ('Hang up your Hang-Ups') built on Dec 12 2009 15:20:35
Writing library : libebml v0.7.9 + libmatroska v0.8.1

Video
ID : 1
Format : AVC
Format/Info : Advanced Video Codec
Format profile : High@L4.1
Format settings, CABAC : Yes
Format settings, ReFrames : 4 frames
Codec ID : V_MPEG4/ISO/AVC
Duration : 2h 11mn
Bit rate : 6 849 Kbps
Width : 1 920 pixels
Height : 794 pixels
Display aspect ratio : 2.40:1
Frame rate : 23.976 fps
Color space : YUV
Language : English

Audio #1
ID : 2
Format : AC-3
Format/Info : Audio Coding 3
Mode extension : CM (complete main)
Codec ID : A_AC3
Duration : 2h 11mn
Bit rate mode : Constant
Bit rate : 384 Kbps
Channel(s) : 6 channels
Channel positions : Front: L C R, Side: L R, LFE
Sampling rate : 48.0 KHz
Bit depth : 16 bits
Compression mode : Lossy
Delay relative to video : 6s 200ms
Stream size : 362 MiB (4%)
Language : Czech

Audio #2
ID : 3
Format : DTS
Format/Info : Digital Theater Systems
Codec ID : A_DTS
Duration : 2h 11mn
Bit rate mode : Constant
Bit rate : 1 510 Kbps
Channel(s) : 6 channels
Channel positions : Front: L C R, Side: L R, LFE
Sampling rate : 48.0 KHz
Bit depth : 24 bits
Compression mode : Lossy
Stream size : 1.39 GiB (17%)
Language : English

Text #1
ID : 4
Format : UTF-8
Codec ID : S_TEXT/UTF8
Codec ID/Info : UTF-8 Plain Text
Title : Czech
Language : Czech

Text #2
ID : 5
Format : UTF-8
Codec ID : S_TEXT/UTF8
Codec ID/Info : UTF-8 Plain Text
Title : English
Language : English



Obrázek

Obrázek

Pouze Registrovaní uživatelé mohou prohlížet odkazy v tagu code! Registrujte se anebo se Přihlašte na fórum.


Obrázek

Pouze Registrovaní uživatelé mohou prohlížet odkazy v tagu code! Registrujte se anebo se Přihlašte na fórum.


Obrázek

Pouze Registrovaní uživatelé mohou prohlížet odkazy v tagu code! Registrujte se anebo se Přihlašte na fórum.



Obrázek

Pouze Registrovaní uživatelé mohou prohlížet odkazy v tagu code! Registrujte se anebo se Přihlašte na fórum.

_________________
Obrázek


Nahoru 
 Profil  
 
 Předmět příspěvku: Vlajky našich otců / Flags of Our Fathers (2006)
 Příspěvek Napsal: 29 zář 2021, 19:20 
Offline
Registrovaní uživatelé

Registrován: 04 zář 2007, 13:04
ID Užívateľa: 818

Online: 19d 14h 50m 19s
Poďakoval: 0 x
Obdržal: 1 x


Částka:
61,929.75



Karma: 0


Vlajky našich otců / Flags of Our Fathers (2006)

Pouze Registrovaní uživatelé mohou prohlížet odkazy v tagu code! Registrujte se anebo se Přihlašte na fórum.


Obrázek
Obrázek
Obrázek

Pouze Registrovaní uživatelé mohou prohlížet odkazy v tagu code! Registrujte se anebo se Přihlašte na fórum.


Nahoru 
 Profil  
 
Zobrazit příspěvky za předchozí:  Seřadit podle  
 
Odeslat nové téma Odpovědět na téma  [ Příspěvků: 2 ] 

Obsah fóra » Filmy download » HD filmy a jiné » HD filmy cz/sk


 
Nemůžete zakládat nová témata v tomto fóru
Nemůžete odpovídat v tomto fóru
Nemůžete upravovat své příspěvky v tomto fóru
Nemůžete mazat své příspěvky v tomto fóru
Nemůžete přikládat soubory v tomto fóru

Hledat:
Přejít na:  







TOPlist
Český překlad – phpBB.cz
Karma functions powered by Karma MOD © 2007, 2009 m157y
phpBB SEO



..:: Žádný ze zobrazených souborů, které můžete nalézt na tomto fóru, nejsou umístěny na tomto serveru. Autoři stránky nenesou zodpovědnost za příspěvky odeslané užívateli,ani za jejich další akce,které by mohli vést k porušování zákonů. Za své příspěvky zodpovídají uživatelé. Nepoužívejte tyto stránky k distribuci a nebo k downloadu jakýchkoliv materiálů, ke kterým nemáte legální oprávnění a nebo licenci ::..