Vítejte na stránkách . Klikněte zde pro registraci

Uživatelské jméno:   Heslo:   Pamätat si ma  Skrýt můj online stav 
Registrovat    Přihlásit se    Fórum    Hledat    FAQ
Bannery     Kontakt   


Informační Panel






www.centralwar.eu
www.centralwar.eu

Obsah fóra » Filmy download » HD filmy a jiné » HD filmy cz/sk




Odeslat nové téma Odpovědět na téma  [ Příspěvků: 3 ] 
Autor Zpráva
 Předmět příspěvku: Smrtonosná past / Die Hard (1988)
 Příspěvek Napsal: 10 úno 2016, 17:34 
Offline
Registrovaní uživatelé

Registrován: 27 led 2016, 20:28
ID Užívateľa: 65951

Online: 14d 39m 25s
Poďakoval: 0 x
Obdržal: 1 x


Částka:
5,239.50



Karma: 0


Smrtonosná past / Die Hard (1988)

Video/Zdroj: BluRay 1080p
Audio: CZ AC-3 2ch, EN DTS 5.1ch
Titulky: CZ


Obrázek

CSFD / IMDB
Pouze Registrovaní uživatelé mohou prohlížet odkazy v tagu code! Registrujte se anebo se Přihlašte na fórum.


INFO
Citace:
Format : Matroska
Format version : Version 1
File size : 8.13 GiB
Duration : 2h 12mn
Overall bit rate : 8 800 Kbps

Video
Format : AVC
Format profile : High@L5.1
Bit rate : 7 099 Kbps
Width : 1 920 pixels
Height : 816 pixels
Display aspect ratio : 2.35:1
Frame rate mode : Constant
Frame rate : 23.976 fps
Color space : YUV
Chroma subsampling : 4:2:0
Bit depth : 8 bits
Scan type : Progressive
Bits/(Pixel*Frame) : 0.189
Stream size : 6.39 GiB (79%)

Audio #1
Format : AC-3
Duration : 2h 12mn
Bit rate mode : Constant
Bit rate : 192 Kbps
Channel(s) : 2 channels
Channel positions : Front: L R
Sampling rate : 48.0 KHz
Bit depth : 16 bits
Compression mode : Lossy
Stream size : 182 MiB (2%)
Language : Czech

Audio #2
Format : DTS
Duration : 2h 12mn
Bit rate mode : Constant
Bit rate : 1 509 Kbps
Channel(s) : 6 channels
Channel positions : Front: L C R, Side: L R, LFE
Sampling rate : 48.0 KHz
Bit depth : 24 bits
Compression mode : Lossy
Stream size : 1.39 GiB (17%)
Language : English

Text
Format : UTF-8
Language : Czech


FASTSHARE

Pouze Registrovaní uživatelé mohou prohlížet odkazy v tagu code! Registrujte se anebo se Přihlašte na fórum.


Pouze Registrovaní uživatelé mohou prohlížet odkazy v tagu code! Registrujte se anebo se Přihlašte na fórum.


Balené bez kompresie. Bez hesla. Pridaný záznam pre opravu dát 5%.


Naposledy upravil Sonty1 dne 22 srp 2019, 14:59, celkově upraveno 3

Nahoru 
 Profil  
 
 Předmět příspěvku: Smrtonosná past / Die Hard (1988)
 Příspěvek Napsal: 04 led 2020, 14:49 
Offline
Registrovaní uživatelé

Registrován: 04 zář 2007, 13:04
ID Užívateľa: 818

Online: 2d 21h 57m 9s
Poďakoval: 0 x
Obdržal: 0 x


Částka:
10,381.35



Karma: 0


Smrtonosná past / Die Hard (1988)

https://www.csfd.cz/film/6642-smrtonosna-past/prehled/

Obrázek
Obrázek
Obrázek
Pouze Registrovaní uživatelé mohou prohlížet odkazy v tagu code! Registrujte se anebo se Přihlašte na fórum.

_________________
ObrázekBTC, LTC, ETH
1LWRgkaTCsxigEfy9cKc5XGmWntiiGXEbh


Naposledy upravil Stanley dne 13 led 2020, 23:18, celkově upraveno 1

Nahoru 
 Profil  
 
 Předmět příspěvku: Smrtonosná past / Die Hard (1988)
 Příspěvek Napsal: 13 led 2020, 22:52 
Offline
Registrovaní uživatelé

Registrován: 04 zář 2007, 13:04
ID Užívateľa: 818

Online: 2d 21h 57m 9s
Poďakoval: 0 x
Obdržal: 0 x


Částka:
10,381.35



Karma: 0


Smrtonosná past / Die Hard (1988)

Pouze Registrovaní uživatelé mohou prohlížet odkazy v tagu code! Registrujte se anebo se Přihlašte na fórum.


4K UHD

Obrázek
Obrázek
Obrázek

Pouze Registrovaní uživatelé mohou prohlížet odkazy v tagu code! Registrujte se anebo se Přihlašte na fórum.

_________________
ObrázekBTC, LTC, ETH
1LWRgkaTCsxigEfy9cKc5XGmWntiiGXEbh


Nahoru 
 Profil  
 
Zobrazit příspěvky za předchozí:  Seřadit podle  
 
Odeslat nové téma Odpovědět na téma  [ Příspěvků: 3 ] 

Obsah fóra » Filmy download » HD filmy a jiné » HD filmy cz/sk


 
Nemůžete zakládat nová témata v tomto fóru
Nemůžete odpovídat v tomto fóru
Nemůžete upravovat své příspěvky v tomto fóru
Nemůžete mazat své příspěvky v tomto fóru
Nemůžete přikládat soubory v tomto fóru

Hledat:
Přejít na:  







TOPlist
Český překlad – phpBB.cz
Karma functions powered by Karma MOD © 2007, 2009 m157y
phpBB SEO



..:: Žádný ze zobrazených souborů, které můžete nalézt na tomto fóru, nejsou umístěny na tomto serveru. Autoři stránky nenesou zodpovědnost za příspěvky odeslané užívateli,ani za jejich další akce,které by mohli vést k porušování zákonů. Za své příspěvky zodpovídají uživatelé. Nepoužívejte tyto stránky k distribuci a nebo k downloadu jakýchkoliv materiálů, ke kterým nemáte legální oprávnění a nebo licenci ::..