Vítejte na stránkách . Klikněte zde pro registraci

Uživatelské jméno:   Heslo:   Pamätat si ma  Skrýt můj online stav 
Registrovat    Přihlásit se    Fórum    Hledat    FAQ
Bannery     Kontakt   


Informační Panel

Forum je na prodej,v případě zájmu pište zde contact.php




www.centralwar.eu
www.centralwar.eu

Obsah fóra » Filmy download » HD filmy a jiné » HD filmy cz/sk




Odeslat nové téma Odpovědět na téma  [ Příspěvků: 2 ] 
Autor Zpráva
 Předmět příspěvku: Alexander Veliký / Alexander (2004)
 Příspěvek Napsal: 26 úno 2012, 21:26 
Offline
V.I.P
Uživatelský avatar

Registrován: 22 dub 2010, 20:27
ID Užívateľa: 37478

Online: 1d 22h 21m 25s
Poďakoval: 0 x
Obdržal: 2 x


Částka:
16,235.45



Karma: 0



Medals: 2
Název: Alexander Veliký / Alexander (2004)

Zdroj: Alexander.2004.BluRay.720p.x264.En.CZ

Obrázek

Obrázek


Obrázek

Pouze Registrovaní uživatelé mohou prohlížet odkazy v tagu code! Registrujte se anebo se Přihlašte na fórum.


Obrázek

Citace:
Akční / Dobrodružný / Drama / Životopisný
USA / Velká Británie / Německo / Nizozemsko, 2004, 175 min (SE: 207 min, Director's cut: 167 min)


CSFD 62 %
IMDb Rating 5.4


Režie: Oliver Stone
Hudba: Vangelis
Hrají: Colin Farrell, Angelina Jolie, Val Kilmer, Anthony Hopkins, Jared Leto, Rosario Dawson, Jonathan Rhys Meyers, Rory McCann, Gary Stretch, Neil Jackson, Raz Degan, Christopher Plummer, John Kavanagh, Annelise Hesme, Connor Paolo, Elliot Cowan, Joseph Morgan, Toby Kebbell, Brian Blessed, Tim Pigott-Smith, Fiona O'Shaughnessy, Rab Affleck, Féodor Atkine, Max Bollinger, David Leon


Velkolepá historická sága mapuje život i legendu jedné z nejvýraznějších postav světové historie, odvážného a neúprosného dobyvatele, Alexandra Velikého, který ve věku 32 let vytvořil největší impérium všech dob. Minulost a přítomnost se střetává v mozaice triumfů i porážek, ve kterých se promítají vzpomínky z dětství i Alexandrův vzestup k moci. Historický velkofilm ukazuje celý Alexandrův život. Od dospívání, které bylo naplněno sny o slávě a dobrodružství, až po jeho osamělou a mystickou smrt. Od bouřlivého vztahu s rodiči – mocný král a královny předurčili svého syna jako následníka trůnu za každou cenu, až po chvíle, kdy vyburcoval své společníky i vedl obrovskou armádu přes vyprahlá válečná pole v Persii i přes zasněžené vrcholky indických hor. Film je kronikou Alexandra Velikého a jeho cesty stát se žijící legendou, muže, který byl hnán myšlenkou, že moc je sílou osudu. (oficiální text distributora)

Complete name : D:\filmy download\axv.by.dadinek2.of.poweruploaders\Alexander veliký.mkv
Format : Matroska
File size : 8.64 GiB
Duration : 2h 55mn
Overall bit rate : 7 052 Kbps
Encoded date : UTC 2009-12-08 17:49:01
Writing application : mkvmerge v2.2.0 ('Freak U') built on Sep 8 2008 16:20:24
Writing library : libebml v0.7.7 + libmatroska v0.8.1

Video
ID : 1
Format : AVC
Format/Info : Advanced Video Codec
Format profile : High@L5.1
Format settings, CABAC : Yes
Format settings, ReFrames : 8 frames
Muxing mode : Container profile=Unknown@5.1
Codec ID : V_MPEG4/ISO/AVC
Duration : 2h 55mn
Bit rate : 4 826 Kbps
Nominal bit rate : 4 965 Kbps
Width : 1 280 pixels
Height : 544 pixels
Display aspect ratio : 2.35
Frame rate : 23.976 fps
Resolution : 24 bits
Colorimetry : 4:2:0
Scan type : Progressive
Bits/(Pixel*Frame) : 0.289
Stream size : 5.91 GiB (68%)
Writing library : x264 core 56 svn-669
Encoding settings : cabac=1 / ref=5 / deblock=1:0:0 / analyse=0x3:0x113 / me=umh / subme=7 / brdo=1 / mixed_ref=1 / me_range=16 / chroma_me=1 / trellis=1 / 8x8dct=1 / cqm=0 / deadzone=21,11 / chroma_qp_offset=0 / threads=6 / nr=0 / decimate=1 / mbaff=0 / bframes=3 / b_pyramid=1 / b_adapt=1 / b_bias=0 / direct=1 / wpredb=1 / bime=1 / keyint=250 / keyint_min=25 / scenecut=40(pre) / rc=2pass / bitrate=4965 / ratetol=1.0 / rceq='blurCplx^(1-qComp)' / qcomp=0.60 / qpmin=10 / qpmax=51 / qpstep=4 / cplxblur=20.0 / qblur=0.5 / ip_ratio=1.40 / pb_ratio=1.30
Language : English

Audio #1
ID : 2
Format : DTS
Format/Info : Digital Theater Systems
Codec ID : A_DTS
Duration : 2h 55mn
Bit rate mode : Constant
Bit rate : 1 510 Kbps
Channel(s) : 6 channels
Channel positions : Front: L C R, Surround: L R, LFE
Sampling rate : 48.0 KHz
Resolution : 16 bits
Stream size : 1.85 GiB (21%)

Audio #2
ID : 3
Format : AC-3
Format/Info : Audio Coding 3
Codec ID : A_AC3
Duration : 2h 55mn
Bit rate mode : Constant
Bit rate : 128 Kbps
Channel(s) : 2 channels
Channel positions : L R
Sampling rate : 48.0 KHz
Video delay : 400ms
Stream size : 161 MiB (2%)
Title : DD2.0
Language : Czech

Audio #3
ID : 4
Format : AC-3
Format/Info : Audio Coding 3
Codec ID : A_AC3
Duration : 2h 55mn
Bit rate mode : Constant
Bit rate : 448 Kbps
Channel(s) : 6 channels
Channel positions : Front: L C R, Surround: L R, LFE
Sampling rate : 48.0 KHz
Video delay : 300ms
Stream size : 562 MiB (6%)
Title : DD5.1
Language : Czech



Obrázek

Obrázek

Pouze Registrovaní uživatelé mohou prohlížet odkazy v tagu code! Registrujte se anebo se Přihlašte na fórum.


Obrázek

Pouze Registrovaní uživatelé mohou prohlížet odkazy v tagu code! Registrujte se anebo se Přihlašte na fórum.


Obrázek

Pouze Registrovaní uživatelé mohou prohlížet odkazy v tagu code! Registrujte se anebo se Přihlašte na fórum.



Obrázek

Pouze Registrovaní uživatelé mohou prohlížet odkazy v tagu code! Registrujte se anebo se Přihlašte na fórum.

_________________
Obrázek


Nahoru 
 Profil  
 
 Předmět příspěvku: Alexander Veliký / Alexander (2004)
 Příspěvek Napsal: 23 zář 2021, 19:22 
Offline
Registrovaní uživatelé

Registrován: 04 zář 2007, 13:04
ID Užívateľa: 818

Online: 21d 5h 55m 44s
Poďakoval: 0 x
Obdržal: 1 x


Částka:
66,969.95



Karma: 0


Alexander Veliký / Alexander (2004)

Pouze Registrovaní uživatelé mohou prohlížet odkazy v tagu code! Registrujte se anebo se Přihlašte na fórum.


Obrázek
Obrázek
Obrázek

Pouze Registrovaní uživatelé mohou prohlížet odkazy v tagu code! Registrujte se anebo se Přihlašte na fórum.


Nahoru 
 Profil  
 
Zobrazit příspěvky za předchozí:  Seřadit podle  
 
Odeslat nové téma Odpovědět na téma  [ Příspěvků: 2 ] 

Obsah fóra » Filmy download » HD filmy a jiné » HD filmy cz/sk


 
Nemůžete zakládat nová témata v tomto fóru
Nemůžete odpovídat v tomto fóru
Nemůžete upravovat své příspěvky v tomto fóru
Nemůžete mazat své příspěvky v tomto fóru
Nemůžete přikládat soubory v tomto fóru

Hledat:
Přejít na:  







cron
TOPlist
Český překlad – phpBB.cz
Karma functions powered by Karma MOD © 2007, 2009 m157y
phpBB SEO



..:: Žádný ze zobrazených souborů, které můžete nalézt na tomto fóru, nejsou umístěny na tomto serveru. Autoři stránky nenesou zodpovědnost za příspěvky odeslané užívateli,ani za jejich další akce,které by mohli vést k porušování zákonů. Za své příspěvky zodpovídají uživatelé. Nepoužívejte tyto stránky k distribuci a nebo k downloadu jakýchkoliv materiálů, ke kterým nemáte legální oprávnění a nebo licenci ::..