Vítejte na stránkách . Klikněte zde pro registraci

Uživatelské jméno:   Heslo:   Pamätat si ma  Skrýt můj online stav 
Registrovat    Přihlásit se    Fórum    Hledat    FAQ
Bannery     Kontakt   


Informační Panel

Forum je na prodej,v případě zájmu pište zde contact.php




www.centralwar.eu
www.centralwar.eu

Obsah fóra » Filmy download » HD filmy a jiné » HD filmy cz/sk




Odeslat nové téma Odpovědět na téma  [ Příspěvků: 2 ] 
Autor Zpráva
 Předmět příspěvku: Jméno růže / Name of the Rose, The (1986)
 Příspěvek Napsal: 01 bře 2012, 11:38 
Offline
V.I.P
Uživatelský avatar

Registrován: 22 dub 2010, 20:27
ID Užívateľa: 37478

Online: 1d 22h 21m 25s
Poďakoval: 0 x
Obdržal: 2 x


Částka:
16,235.45



Karma: 0



Medals: 2
Název: Jméno růže / Name of the Rose, The (1986)

Zdroj: The.Name.of.the.Rose.1986.1080p.DTS.x264-HDMaNiAcS.CZ.EN

Obrázek

Obrázek


Obrázek

Pouze Registrovaní uživatelé mohou prohlížet odkazy v tagu code! Registrujte se anebo se Přihlašte na fórum.


Obrázek

Citace:
Drama / Mysteriózní / Historický / Krimi
Západní Německo / Francie / Itálie, 1986, 130 min


CSFD 85 %
IMDb Rating 7.8


Režie: Jean-Jacques Annaud
Hudba: James Horner
Hrají: Sean Connery, F. Murray Abraham, Helmut Qualtinger, Christian Slater, Elya Baskin, Michael Lonsdale, William Hickey, Valentina Vargas, Ron Perlman, Andrew Birkin, Leopoldo Trieste, Peter Berling, Ludger Pistor, Kim Rossi Stuart, Gianni Rizzo, Franco Marino


V dnes již legendárním snímku z roku 1986 natočeném podle neméně proslulého románu Umberta Eca se ocitáme na opatství benediktinů, kde došlo k záhadnému úmrtí. Píše se rok 1327 a mniši jsou přesvědčeni o tom, že se blíží apokalypsa. Opatství právě hostí koncil, který se zabývá otázkou přesvědčení františkánů, kteří tvrdí, že by se církev měla zbavit svého majetku. Jeden z účastníků koncilu, ctihodný a respektovaný františkánský mnich William of Baskerville je požádán vedením opatství o pomoc při odhalení příčiny náhlé smrti. Avšak když se vyšetřování blíží k odkrytí tajemství, které chce opatství udržet v tajnosti, dochází k dalším úmrtím. Nyní již nelze zabránit tomu, aby se do celé věci nevložila Svatá inkvizice. William a jeho mladý novic závodí s časem, aby stihli prokázat nevinu křivě obviněnných a vyhnout se hněvu inkvizitora Bernarda Gui. (oficiální text distributora)

Complete name : D:\filmy download\Rsn.by.dadinek2.of.poweruploaders\The.Name.of.the.Rose.1986.1080p.DTS.x264-HDMaNiAcS.mkv
Format : Matroska
File size : 13.5 GiB
Duration : 2h 11mn
Overall bit rate : 14.7 Mbps
Encoded date : UTC 2011-10-06 04:02:54
Writing application : mkvmerge v3.0.0 ('Hang up your Hang-Ups') built on Dec 12 2009 15:20:35
Writing library : libebml v0.7.9 + libmatroska v0.8.1

Video
ID : 1
Format : AVC
Format/Info : Advanced Video Codec
Format profile : High@L4.1
Format settings, CABAC : Yes
Format settings, ReFrames : 4 frames
Muxing mode : Container profile=Unknown@4.1
Codec ID : V_MPEG4/ISO/AVC
Duration : 2h 11mn
Bit rate : 12.7 Mbps
Nominal bit rate : 13.0 Mbps
Width : 1 908 pixels
Height : 1 080 pixels
Display aspect ratio : 16/9
Frame rate : 23.976 fps
Resolution : 24 bits
Colorimetry : 4:2:0
Scan type : Progressive
Bits/(Pixel*Frame) : 0.257
Stream size : 11.7 GiB (86%)
Title : The.Name.of.the.Rose.1986.1080p.DTS.x264-HDMaNiAcS
Writing library : x264 core 116 r2074 2641b9e
Encoding settings : cabac=1 / ref=4 / deblock=1:-2:-2 / analyse=0x3:0x113 / me=tesa / subme=11 / psy=1 / psy_rd=0.70:0.00 / mixed_ref=0 / me_range=24 / chroma_me=1 / trellis=2 / 8x8dct=1 / cqm=0 / deadzone=21,11 / fast_pskip=0 / chroma_qp_offset=-2 / threads=12 / sliced_threads=0 / nr=0 / decimate=1 / interlaced=0 / bluray_compat=0 / constrained_intra=0 / bframes=8 / b_pyramid=2 / b_adapt=2 / b_bias=0 / direct=3 / weightb=1 / open_gop=0 / weightp=2 / keyint=250 / keyint_min=23 / scenecut=40 / intra_refresh=0 / rc_lookahead=90 / rc=2pass / mbtree=1 / bitrate=13000 / ratetol=1.0 / qcomp=0.60 / qpmin=10 / qpmax=69 / qpstep=4 / cplxblur=20.0 / qblur=0.5 / ip_ratio=1.40 / aq=1:0.60
Language : English

Audio #1
ID : 2
Format : AC-3
Format/Info : Audio Coding 3
Format profile : Dolby Digital
Codec ID : A_AC3
Duration : 2h 11mn
Bit rate mode : Constant
Bit rate : 192 Kbps
Channel(s) : 2 channels
Channel positions : L R
Sampling rate : 48.0 KHz
Stream size : 181 MiB (1%)
Language : Czech

Audio #2
ID : 3
Format : DTS
Format/Info : Digital Theater Systems
Codec ID : A_DTS
Duration : 2h 11mn
Bit rate mode : Constant
Bit rate : 1 510 Kbps
Channel(s) : 6 channels
Channel positions : Front: L C R, Surround: L R, LFE
Sampling rate : 48.0 KHz
Resolution : 24 bits
Video delay : 11ms
Stream size : 1.39 GiB (10%)
Language : English

Text #1
ID : 4
Format : UTF-8
Codec ID : S_TEXT/UTF8
Codec ID/Info : UTF-8 Plain Text
Title : Czech forced
Language : Czech

Text #2
ID : 5
Format : UTF-8
Codec ID : S_TEXT/UTF8
Codec ID/Info : UTF-8 Plain Text
Title : Czech
Language : Czech

Text #3
ID : 6
Format : UTF-8
Codec ID : S_TEXT/UTF8
Codec ID/Info : UTF-8 Plain Text
Title : English
Language : English



Obrázek

Obrázek

Pouze Registrovaní uživatelé mohou prohlížet odkazy v tagu code! Registrujte se anebo se Přihlašte na fórum.


Obrázek

Pouze Registrovaní uživatelé mohou prohlížet odkazy v tagu code! Registrujte se anebo se Přihlašte na fórum.


Obrázek

Pouze Registrovaní uživatelé mohou prohlížet odkazy v tagu code! Registrujte se anebo se Přihlašte na fórum.



Obrázek

Pouze Registrovaní uživatelé mohou prohlížet odkazy v tagu code! Registrujte se anebo se Přihlašte na fórum.

_________________
Obrázek


Nahoru 
 Profil  
 
 Předmět příspěvku: Jméno růže / Name of the Rose, The (1986)
 Příspěvek Napsal: 14 zář 2021, 19:03 
Offline
Registrovaní uživatelé

Registrován: 04 zář 2007, 13:04
ID Užívateľa: 818

Online: 10d 18h 36m 47s
Poďakoval: 0 x
Obdržal: 0 x


Částka:
33,513.35



Karma: 0


Jméno růže / Il nome della rosa (1986)

Pouze Registrovaní uživatelé mohou prohlížet odkazy v tagu code! Registrujte se anebo se Přihlašte na fórum.


Obrázek
Obrázek
Obrázek

Pouze Registrovaní uživatelé mohou prohlížet odkazy v tagu code! Registrujte se anebo se Přihlašte na fórum.

_________________
ObrázekBTC, LTC, ETH
1LWRgkaTCsxigEfy9cKc5XGmWntiiGXEbh


Nahoru 
 Profil  
 
Zobrazit příspěvky za předchozí:  Seřadit podle  
 
Odeslat nové téma Odpovědět na téma  [ Příspěvků: 2 ] 

Obsah fóra » Filmy download » HD filmy a jiné » HD filmy cz/sk


 
Nemůžete zakládat nová témata v tomto fóru
Nemůžete odpovídat v tomto fóru
Nemůžete upravovat své příspěvky v tomto fóru
Nemůžete mazat své příspěvky v tomto fóru
Nemůžete přikládat soubory v tomto fóru

Hledat:
Přejít na:  







cron
TOPlist
Český překlad – phpBB.cz
Karma functions powered by Karma MOD © 2007, 2009 m157y
phpBB SEO



..:: Žádný ze zobrazených souborů, které můžete nalézt na tomto fóru, nejsou umístěny na tomto serveru. Autoři stránky nenesou zodpovědnost za příspěvky odeslané užívateli,ani za jejich další akce,které by mohli vést k porušování zákonů. Za své příspěvky zodpovídají uživatelé. Nepoužívejte tyto stránky k distribuci a nebo k downloadu jakýchkoliv materiálů, ke kterým nemáte legální oprávnění a nebo licenci ::..