Vítejte na stránkách . Klikněte zde pro registraci

Uživatelské jméno:   Heslo:   Pamätat si ma  Skrýt můj online stav 
Registrovat    Přihlásit se    Fórum    Hledat    FAQ
Bannery     Kontakt   


Informační Panel

Forum je na prodej,v případě zájmu pište zde contact.php




www.centralwar.eu
www.centralwar.eu

Obsah fóra » Filmy download » HD filmy a jiné » HD filmy cz/sk




Odeslat nové téma Odpovědět na téma  [ Příspěvků: 5 ] 
Autor Zpráva
 Předmět příspěvku: Terminator Genisys / Terminator: Genisys (2015)
 Příspěvek Napsal: 14 říj 2015, 23:20 
Offline
Registrovaní uživatelé

Registrován: 08 bře 2015, 09:24
ID Užívateľa: 65171

Online: 7d 15h 2m 38s
Poďakoval: 0 x
Obdržal: 0 x


Částka:
5,662.85



Karma: 0


Terminator: Genisys (2015)

Obrázek

Pouze Registrovaní uživatelé mohou prohlížet odkazy v tagu code! Registrujte se anebo se Přihlašte na fórum.



Terminator.Genisys.2015.720p.BluRay.x264.AC3.CZ.2Ch-iFT-RiSiNG
Jazyk:Czech Ac3 2Ch ,English Ac3 6 kanálov
Titulky:Czech Forced , Czech, English


Pouze Registrovaní uživatelé mohou prohlížet odkazy v tagu code! Registrujte se anebo se Přihlašte na fórum.



Pouze Registrovaní uživatelé mohou prohlížet odkazy v tagu code! Registrujte se anebo se Přihlašte na fórum.


Naposledy upravil Stanley dne 15 lis 2017, 20:32, celkově upraveno 6
Smazány mrtvé linky


Nahoru 
 Profil  
 
 Předmět příspěvku: Terminator: Genisys / Terminator Genisys (2015)
 Příspěvek Napsal: 15 říj 2015, 07:06 
Offline
Registrovaní uživatelé

Registrován: 25 srp 2015, 11:35
ID Užívateľa: 65550

Online: 17d 14h 34m 56s
Poďakoval: 0 x
Obdržal: 4 x


Částka:
31,289.40



Karma: 5


Terminator Genisys (2015)

RELEASE
Terminator.Genisys.2015.720p.BluRay.AC3.CZ.x264-HiDE
Terminator.Genisys.2015.1080p.BluRay.AC3.CZ.x264-HiDE
Terminator.Genisys.2015.1080p.BluRay.x264.AC3.CZ.2Ch-RiSiNG

Obrázek

ČSFD/IMDB
Pouze Registrovaní uživatelé mohou prohlížet odkazy v tagu code! Registrujte se anebo se Přihlašte na fórum.


Terminator.Genisys.2015.720p.BluRay.AC3.CZ.x264-HiDE
AUDIO: CZ AC3 2.0, EN DTS 5.1
TITULKY: CZ-Forced, CZ

INFO
Pouze Registrovaní uživatelé mohou prohlížet odkazy v tagu code! Registrujte se anebo se Přihlašte na fórum.


DOWNLOAD
Pouze Registrovaní uživatelé mohou prohlížet odkazy v tagu code! Registrujte se anebo se Přihlašte na fórum.


Naposledy upravil Stanley dne 13 pro 2016, 22:15, celkově upraveno 4
vymazány mrtvé linky


Nahoru 
 Profil  
 
 Předmět příspěvku: Terminator Genisys / Terminator: Genisys (2015)
 Příspěvek Napsal: 22 říj 2015, 09:37 
Offline
Registrovaní uživatelé

Registrován: 25 srp 2015, 11:35
ID Užívateľa: 65550

Online: 17d 14h 34m 56s
Poďakoval: 0 x
Obdržal: 4 x


Částka:
31,289.40



Karma: 5


Terminator Genisys (2015)

RELEASE
Terminator.Genisys.2015.1080p.BluRay.DTS.x264-DON.CZ-FTU

Obrázek

ČSFD/IMDB
Pouze Registrovaní uživatelé mohou prohlížet odkazy v tagu code! Registrujte se anebo se Přihlašte na fórum.


AUDIO: CZ AC3 5.1, EN DTS-HD 7.1
TITULKY: CZ, EN

INFO
Pouze Registrovaní uživatelé mohou prohlížet odkazy v tagu code! Registrujte se anebo se Přihlašte na fórum.


DOWNLOAD
Pouze Registrovaní uživatelé mohou prohlížet odkazy v tagu code! Registrujte se anebo se Přihlašte na fórum.

Pouze Registrovaní uživatelé mohou prohlížet odkazy v tagu code! Registrujte se anebo se Přihlašte na fórum.


Naposledy upravil Stanley dne 13 pro 2016, 22:12, celkově upraveno 3
Smazány mrtvé linky


Nahoru 
 Profil  
 
 Předmět příspěvku: x
 Příspěvek Napsal: 15 lis 2017, 15:09 
Offline
Registrovaní uživatelé
Uživatelský avatar

Registrován: 22 bře 2017, 21:27
ID Užívateľa: 66540

Online: 18d 11h 9m 50s
Poďakoval: 0 x
Obdržal: 0 x


Částka:
3,809.90



Karma: 0


xxx


Naposledy upravil sabres dne 29 dub 2019, 20:06, celkově upraveno 3

Nahoru 
 Profil  
 
 Předmět příspěvku: Terminator Genisys / Terminator: Genisys (2015)
 Příspěvek Napsal: 19 úno 2018, 20:18 
Offline
Registrovaní uživatelé

Registrován: 27 led 2016, 19:28
ID Užívateľa: 65951

Online: 14d 13h 22m 16s
Poďakoval: 0 x
Obdržal: 1 x


Částka:
5,310.80



Karma: 0


Terminator Genisys / Terminator: Genisys (2015)

Video/Zdroj: BluRay 1080p
Audio: CZ AC-3 5.1ch, EN DTS 5.1ch
Titulky: CZ


Obrázek

CSFD / IMDB
Pouze Registrovaní uživatelé mohou prohlížet odkazy v tagu code! Registrujte se anebo se Přihlašte na fórum.


INFO
Citace:
Format : Matroska
Format version : Version 2
File size : 14.7 GiB
Duration : 2h 5mn
Overall bit rate : 16.7 Mbps

Video
Format : AVC
Format profile : High@L4.1
Duration : 2h 5mn
Bit rate : 14.5 Mbps
Width : 1 920 pixels
Height : 804 pixels
Display aspect ratio : 2.40:1
Frame rate mode : Constant
Frame rate : 23.976 fps
Color space : YUV
Chroma subsampling : 4:2:0
Bit depth : 8 bits
Scan type : Progressive
Bits/(Pixel*Frame) : 0.393
Stream size : 12.5 GiB (85%)

Audio #1
Format : AC-3
Duration : 2h 5mn
Bit rate mode : Constant
Bit rate : 640 Kbps
Channel(s) : 6 channels
Channel positions : Front: L C R, Side: L R, LFE
Sampling rate : 48.0 KHz
Bit depth : 16 bits
Compression mode : Lossy
Stream size : 575 MiB (4%)
Language : Czech
Default : Yes
Forced : No

Audio #2
Format : DTS
Duration : 2h 5mn
Bit rate mode : Constant
Bit rate : 1 510 Kbps
Channel(s) : 6 channels
Channel positions : Front: L C R, Side: L R, LFE
Sampling rate : 48.0 KHz
Bit depth : 24 bits
Compression mode : Lossy
Stream size : 1.33 GiB (9%)
Language : English
Default : No
Forced : No

Text #1
Format : UTF-8
Title : forced
Language : Czech
Default : Yes
Forced : Yes

Text #2
Format : UTF-8
Language : Czech
Default : No
Forced : No


FASTSHARE

Pouze Registrovaní uživatelé mohou prohlížet odkazy v tagu code! Registrujte se anebo se Přihlašte na fórum.


Pouze Registrovaní uživatelé mohou prohlížet odkazy v tagu code! Registrujte se anebo se Přihlašte na fórum.


Balené bez kompresie. Bez hesla. Pridaný záznam pre opravu dát 5%.


Naposledy upravil Sonty1 dne 23 dub 2020, 14:55, celkově upraveno 2

Nahoru 
 Profil  
 
Zobrazit příspěvky za předchozí:  Seřadit podle  
 
Odeslat nové téma Odpovědět na téma  [ Příspěvků: 5 ] 

Obsah fóra » Filmy download » HD filmy a jiné » HD filmy cz/sk


 
Nemůžete zakládat nová témata v tomto fóru
Nemůžete odpovídat v tomto fóru
Nemůžete upravovat své příspěvky v tomto fóru
Nemůžete mazat své příspěvky v tomto fóru
Nemůžete přikládat soubory v tomto fóru

Hledat:
Přejít na:  







TOPlist
Český překlad – phpBB.cz
Karma functions powered by Karma MOD © 2007, 2009 m157y
phpBB SEO



..:: Žádný ze zobrazených souborů, které můžete nalézt na tomto fóru, nejsou umístěny na tomto serveru. Autoři stránky nenesou zodpovědnost za příspěvky odeslané užívateli,ani za jejich další akce,které by mohli vést k porušování zákonů. Za své příspěvky zodpovídají uživatelé. Nepoužívejte tyto stránky k distribuci a nebo k downloadu jakýchkoliv materiálů, ke kterým nemáte legální oprávnění a nebo licenci ::..