Vítejte na stránkách . Klikněte zde pro registraci

Uživatelské jméno:   Heslo:   Pamätat si ma  Skrýt můj online stav 
Registrovat    Přihlásit se    Fórum    Hledat    FAQ
Bannery     Kontakt   


Informační Panel

wel




www.centralwar.eu
www.centralwar.eu

Obsah fóra » Filmy download » HD filmy a jiné » HD filmy cz/sk




Odeslat nové téma Odpovědět na téma  [ Příspěvků: 2 ] 
Autor Zpráva
 Předmět příspěvku: Tahle země není pro starý / No Country for Old Men (2007)
 Příspěvek Napsal: 24 čer 2017, 22:54 
Offline
Registrovaní uživatelé
Uživatelský avatar

Registrován: 23 kvě 2010, 09:37
ID Užívateľa: 38343

Online: 90d 21h 15m 8s
Poďakoval: 1 x
Obdržal: 2 x


Částka:
27,421.00



Karma: 0


Obrázek
Pouze Registrovaní uživatelé mohou prohlížet odkazy v tagu code! Registrujte se anebo se Přihlašte na fórum.


Drama / Krimi / Thriller
USA, 2007, 122 min

Režie: Ethan Coen, Joel Coen
Předloha: Cormac McCarthy (kniha)
Scénář: Ethan Coen, Joel Coen
Kamera: Roger Deakins
Hudba: Carter Burwell
Hrají: Tommy Lee Jones, Javier Bardem, Josh Brolin, Woody Harrelson, Kelly Macdonald, Tess Harper

Obsah
Původně si chtěl Lleywelyn Moss (Josh Brolin) v noci jenom zalovit. Jenže v místech, kde se prázdná pustina dělí díky hraničním kamenům na Texas a Mexiko, měl „štěstí“ na jiný úlovek. Mezi zkrvavenými těly v rozstřílených autech leželo několik balíků čistého heroinu a dva miliony dolarů v hotovosti. Neodolal pokušení a započal tím zběsilou štvanici na sebe i svoji mladou ženu. V jejich stopách se vydává stárnoucí šerif Ed Tom Bell (Tommy Lee Jones), který ví, že pokud dvojici nenajde dřív než profesionální zabiják Anton Chigurh (Javier Bardem), bude s nimi zle.

Obrázek

Velikost souboru : 1,85 GiB
Duration/String : 2h 2mn
Celkový BitRate : 2 162 Kbps

Video
Formát : AVC
Bit rate : 1 776 Kbps
Šířka : 1 920pixely
Výška : 816pixely
Frame rate : 23,976 (24000/1001) fps

Audio #1
Formát : AC-3
Bit rate : 192 Kbps
Kanál(y) : 2 kanály
Channel positions : Front: L R
Sampling rate : 48,0 KHz
Frame rate : 31,250 fps (1536 spf)
Jazyk : Czech

Audio #2
Formát : AC-3
Bit rate : 192 Kbps
Kanál(y) : 2 kanály
Channel positions : Front: L R
Sampling rate : 48,0 KHz
Frame rate : 31,250 fps (1536 spf)
Jazyk : English

Titulky
Jazyk : Czech
Jazyk : English


Pouze Registrovaní uživatelé mohou prohlížet odkazy v tagu code! Registrujte se anebo se Přihlašte na fórum.

Pouze Registrovaní uživatelé mohou prohlížet odkazy v tagu code! Registrujte se anebo se Přihlašte na fórum.

Obrázek
Obrázek


Naposledy upravil Stanley dne 21 lis 2018, 18:03, celkově upraveno 1
Kontrola příspěvku


Nahoru 
 Profil  
 
 Předmět příspěvku: Tahle země není pro starý / No Country for Old Men (2007)
 Příspěvek Napsal: 21 lis 2018, 11:36 
Offline
Registrovaní uživatelé

Registrován: 27 led 2016, 20:28
ID Užívateľa: 65951

Online: 10d 5h 21m 49s
Poďakoval: 0 x
Obdržal: 0 x


Částka:
3,419.55



Karma: 0


Tahle země není pro starý / No Country for Old Men (2007)

Video/Zdroj: BluRay 1080p
Audio: CZ 5.1ch AC-3 , EN 5.1ch DTS
Titulky: CZ, EN


Obrázek

CSFD / IMDB
Pouze Registrovaní uživatelé mohou prohlížet odkazy v tagu code! Registrujte se anebo se Přihlašte na fórum.


INFO
Citace:
Format : Matroska
Format version : Version 2
File size : 10.7 GiB
Duration : 2h 2mn
Overall bit rate : 12.5 Mbps

Video
Format : AVC
Format profile : High@L4.1
Duration : 2h 2mn
Bit rate : 10.3 Mbps
Width : 1 920 pixels
Height : 816 pixels
Display aspect ratio : 2.35:1
Frame rate mode : Constant
Frame rate : 23.976 fps
Color space : YUV
Chroma subsampling : 4:2:0
Bit depth : 8 bits
Scan type : Progressive
Bits/(Pixel*Frame) : 0.275
Stream size : 8.61 GiB (81%)

Audio #1
Format : AC-3
Duration : 2h 2mn
Bit rate mode : Constant
Bit rate : 640 Kbps
Channel(s) : 6 channels
Channel positions : Front: L C R, Side: L R, LFE
Sampling rate : 48.0 KHz
Frame rate : 31.250 fps (1536 spf)
Compression mode : Lossy
Stream size : 559 MiB (5%)
Language : Czech
Default : Yes
Forced : No

Audio #2
Format : DTS
Duration : 2h 2mn
Bit rate mode : Constant
Bit rate : 1 510 Kbps
Channel(s) : 6 channels
Channel positions : Front: L C R, Side: L R, LFE
Sampling rate : 48.0 KHz
Frame rate : 93.750 fps (512 spf)
Bit depth : 24 bits
Compression mode : Lossy
Stream size : 1.29 GiB (12%)
Language : English
Default : No
Forced : No

Text #1
Format : UTF-8
Language : Czech
Default : No
Forced : No

Text #2
Format : UTF-8
Language : English
Default : No
Forced : No


FASTSHARE
Pouze Registrovaní uživatelé mohou prohlížet odkazy v tagu code! Registrujte se anebo se Přihlašte na fórum.


Pouze Registrovaní uživatelé mohou prohlížet odkazy v tagu code! Registrujte se anebo se Přihlašte na fórum.


Bez hesla. Balené bez kompresie. Pridaný záznam pre opravu dát 5%.


Nahoru 
 Profil  
 
Zobrazit příspěvky za předchozí:  Seřadit podle  
 
Odeslat nové téma Odpovědět na téma  [ Příspěvků: 2 ] 

Obsah fóra » Filmy download » HD filmy a jiné » HD filmy cz/sk


 
Nemůžete zakládat nová témata v tomto fóru
Nemůžete odpovídat v tomto fóru
Nemůžete upravovat své příspěvky v tomto fóru
Nemůžete mazat své příspěvky v tomto fóru
Nemůžete přikládat soubory v tomto fóru

Hledat:
Přejít na:  







TOPlist
Český překlad – phpBB.cz
Karma functions powered by Karma MOD © 2007, 2009 m157y
phpBB SEO



..:: Žádný ze zobrazených souborů, které můžete nalézt na tomto fóru, nejsou umístěny na tomto serveru. Autoři stránky nenesou zodpovědnost za příspěvky odeslané užívateli,ani za jejich další akce,které by mohli vést k porušování zákonů. Za své příspěvky zodpovídají uživatelé. Nepoužívejte tyto stránky k distribuci a nebo k downloadu jakýchkoliv materiálů, ke kterým nemáte legální oprávnění a nebo licenci ::..