Vítejte na stránkách . Klikněte zde pro registraci

Uživatelské jméno:   Heslo:   Pamätat si ma  Skrýt můj online stav 
Registrovat    Přihlásit se    Fórum    Hledat    FAQ
Bannery     Kontakt   


Informační Panel

wel




www.centralwar.eu
www.centralwar.eu

Obsah fóra » Filmy download » HD filmy a jiné » HD filmy cz/sk




Odeslat nové téma Odpovědět na téma  [ Příspěvek: 1 ] 
Autor Zpráva
 Předmět příspěvku: Doctor Strange / Doctor Strange (2016)
 Příspěvek Napsal: 06 pro 2017, 00:10 
Offline
Registrovaní uživatelé

Registrován: 27 led 2016, 19:28
ID Užívateľa: 65951

Online: 19h 17m 5s
Poďakoval: 0 x
Obdržal: 0 x


Částka:
1,295.70



Karma: 0


Doctor Strange (2016)
Video/Zdroj: BluRay 1080p
Audio: CZ 5.1ch AC-3, EN 5.1ch DTS
Titulky: CZ, EN

Obrázek

Pouze Registrovaní uživatelé mohou prohlížet odkazy v tagu code! Registrujte se anebo se Přihlašte na fórum.


Citace:
Format : Matroska
Format version : Version 4 / Version 2
File size : 15.0 GiB
Duration : 1 h 54 min
Overall bit rate : 18.6 Mb/s

Video
Format : AVC
Format profile : High@L4.1
Duration : 1 h 54 min
Bit rate : 16.7 Mb/s
Width : 1 920 pixels
Height : 804 pixels
Display aspect ratio : 2.40:1
Frame rate mode : Constant
Frame rate : 23.976 (24000/1001) FPS
Color space : YUV
Chroma subsampling : 4:2:0
Bit depth : 8 bits
Scan type : Progressive
Bits/(Pixel*Frame) : 0.452
Stream size : 13.4 GiB (90%)

Audio #1
Format : AC-3
Duration : 1 h 54 min
Bit rate mode : Constant
Bit rate : 384 kb/s
Channel(s) : 6 channels
Channel positions : Front: L C R, Side: L R, LFE
Sampling rate : 48.0 kHz
Frame rate : 31.250 FPS (1536 SPF)
Bit depth : 16 bits
Compression mode : Lossy
Stream size : 316 MiB (2%)
Language : Czech
Default : Yes
Forced : No

Audio #2
Format : DTS
Duration : 1 h 54 min
Bit rate mode : Constant
Bit rate : 1 509 kb/s
Channel(s) : 6 channels
Channel positions : Front: L C R, Side: L R, LFE
Sampling rate : 48.0 kHz
Frame rate : 93.750 FPS (512 SPF)
Bit depth : 24 bits
Compression mode : Lossy
Stream size : 1.21 GiB (8%)
Language : English
Default : No
Forced : No

Text #1
Format : UTF-8
Duration : 1 h 33 min
Stream size : 121 Bytes (0%)
Language : Czech
Default : Yes
Forced : Yes

Text #2
Format : UTF-8
Duration : 1 h 52 min
Stream size : 34.6 KiB (0%)
Language : Czech
Default : No
Forced : No

Text #3
Format : UTF-8
Duration : 1 h 52 min
Stream size : 36.1 KiB (0%)
Language : English
Default : No
Forced : No


Pouze Registrovaní uživatelé mohou prohlížet odkazy v tagu code! Registrujte se anebo se Přihlašte na fórum.


Bez hesla. Balené bez kompresie. Pridaný záznam pre opravu dát 5%.


Nahoru 
 Profil  
 
Zobrazit příspěvky za předchozí:  Seřadit podle  
 
Odeslat nové téma Odpovědět na téma  [ Příspěvek: 1 ] 

Obsah fóra » Filmy download » HD filmy a jiné » HD filmy cz/sk


 
Nemůžete zakládat nová témata v tomto fóru
Nemůžete odpovídat v tomto fóru
Nemůžete upravovat své příspěvky v tomto fóru
Nemůžete mazat své příspěvky v tomto fóru
Nemůžete přikládat soubory v tomto fóru

Hledat:
Přejít na:  







TOPlist
Český překlad – phpBB.cz
Karma functions powered by Karma MOD © 2007, 2009 m157y
phpBB SEO



..:: Žádný ze zobrazených souborů, které můžete nalézt na tomto fóru, nejsou umístěny na tomto serveru. Autoři stránky nenesou zodpovědnost za příspěvky odeslané užívateli,ani za jejich další akce,které by mohli vést k porušování zákonů. Za své příspěvky zodpovídají uživatelé. Nepoužívejte tyto stránky k distribuci a nebo k downloadu jakýchkoliv materiálů, ke kterým nemáte legální oprávnění a nebo licenci ::..