Vítejte na stránkách . Klikněte zde pro registraci

Uživatelské jméno:   Heslo:   Pamätat si ma  Skrýt můj online stav 
Registrovat    Přihlásit se    Fórum    Hledat    FAQ
Bannery     Kontakt   


Informační Panel

Screeny,které budou nad klasickou velikost,půjdou do koše!!! gb




www.centralwar.eu
www.centralwar.eu

Obsah fóra » Filmy download » HD filmy a jiné » HD filmy cz/sk




Odeslat nové téma Odpovědět na téma  [ Příspěvků: 3 ] 
Autor Zpráva
 Předmět příspěvku: Deadpool 2 / Deadpool 2 (2018)
 Příspěvek Napsal: 20 srp 2018, 02:46 
Offline
Registrovaní uživatelé
Uživatelský avatar

Registrován: 01 zář 2016, 21:25
ID Užívateľa: 66261

Online: 4d 3h 18m 59s
Poďakoval: 0 x
Obdržal: 6 x


Částka:
14,167.05



Karma: 0


Deadpool 2 (2018)

Obrázek

Akční / Komedie / Dobrodružný / Sci-Fi
USA, 2018, 119 min


OBSAH
Připravte se na druhý příchod Wade Wilsona alias Deadpoola (Ryan Reynolds). Možná s ním prožijeme okamžiky, kdy jako kuchař přežívá skoro smrtící hovězí útok a hned poté prahne po splnění svého velkého snu: stát se nejvyhledávanějším barmanem v Mayberry. ...

ObrázekObrázek
Pouze Registrovaní uživatelé mohou prohlížet odkazy v tagu code! Registrujte se anebo se Přihlašte na fórum.


Zvuk: český (6CH), anglický (6CH)
Titulky: české-vynucené, české, slovenské

MEDIA-INFO
Deadpool 2 (2018) TC BluRay 720p CZ EN 6CH
Pouze Registrovaní uživatelé mohou prohlížet odkazy v tagu code! Registrujte se anebo se Přihlašte na fórum.


DOWNLOAD

Pouze Registrovaní uživatelé mohou prohlížet odkazy v tagu code! Registrujte se anebo se Přihlašte na fórum.


Pouze Registrovaní uživatelé mohou prohlížet odkazy v tagu code! Registrujte se anebo se Přihlašte na fórum.





MEDIA-INFO
Deadpool 2 (2018) TC BluRay 1080p CZ EN 6CH
Pouze Registrovaní uživatelé mohou prohlížet odkazy v tagu code! Registrujte se anebo se Přihlašte na fórum.


DOWNLOAD
Pouze Registrovaní uživatelé mohou prohlížet odkazy v tagu code! Registrujte se anebo se Přihlašte na fórum.

_________________
V případě že ukazuje po stažení souboru z Fastshare u souboru 0MB je to způsobeno že to stahujete přes volné stahování, soubory jsou v pořádku a při stažení přes kredit je i velikost těchto souborů v pořádku.


Naposledy upravil Stanley dne 21 zář 2018, 16:33, celkově upraveno 2
Smazány mrtvé linky


Nahoru 
 Profil  
 
 Předmět příspěvku: Deadpool 2 / Deadpool 2 (2018)
 Příspěvek Napsal: 31 srp 2018, 18:26 
Offline
Registrovaní uživatelé
Uživatelský avatar

Registrován: 01 zář 2016, 21:25
ID Užívateľa: 66261

Online: 4d 3h 18m 59s
Poďakoval: 0 x
Obdržal: 6 x


Částka:
14,167.05



Karma: 0


Deadpool 2 (2018) Super Duper Cut - prodloužená verze

Obrázek

Akční / Komedie / Dobrodružný / Sci-Fi
USA, 2018, 119 min


OBSAH
Připravte se na druhý příchod Wade Wilsona alias Deadpoola (Ryan Reynolds). Možná s ním prožijeme okamžiky, kdy jako kuchař přežívá skoro smrtící hovězí útok a hned poté prahne po splnění svého velkého snu: stát se nejvyhledávanějším barmanem v Mayberry. ...

ObrázekObrázek
Pouze Registrovaní uživatelé mohou prohlížet odkazy v tagu code! Registrujte se anebo se Přihlašte na fórum.


Zvuk: český (6CH), anglický (6CH)
Titulky: české-vynucené, české, anglické

MEDIA-INFO
Deadpool 2 (2018) SuperDuperCut BluRay 720p CZ EN 6CH
Pouze Registrovaní uživatelé mohou prohlížet odkazy v tagu code! Registrujte se anebo se Přihlašte na fórum.


DOWNLOAD
Pouze Registrovaní uživatelé mohou prohlížet odkazy v tagu code! Registrujte se anebo se Přihlašte na fórum.


Pouze Registrovaní uživatelé mohou prohlížet odkazy v tagu code! Registrujte se anebo se Přihlašte na fórum.




MEDIA-INFO
Deadpool 2 (2018) SuperDuperCut BluRay 1080p CZ EN 6CH
Pouze Registrovaní uživatelé mohou prohlížet odkazy v tagu code! Registrujte se anebo se Přihlašte na fórum.


DOWNLOAD
Pouze Registrovaní uživatelé mohou prohlížet odkazy v tagu code! Registrujte se anebo se Přihlašte na fórum.


Pouze Registrovaní uživatelé mohou prohlížet odkazy v tagu code! Registrujte se anebo se Přihlašte na fórum.

_________________
V případě že ukazuje po stažení souboru z Fastshare u souboru 0MB je to způsobeno že to stahujete přes volné stahování, soubory jsou v pořádku a při stažení přes kredit je i velikost těchto souborů v pořádku.


Nahoru 
 Profil  
 
 Předmět příspěvku: Deadpool 2 / Deadpool 2 (2018)
 Příspěvek Napsal: 21 zář 2018, 14:49 
Offline
Registrovaní uživatelé

Registrován: 27 led 2016, 20:28
ID Užívateľa: 65951

Online: 12d 6h 13m 14s
Poďakoval: 0 x
Obdržal: 0 x


Částka:
4,310.85



Karma: 0


Deadpool 2 (2018)

Video: Bluray 1080p
Audio: CZ AC-3 5.1ch, EN DTS 5.1ch / 7ch
Titulky: CZ forced, CZ, EN


Obrázek

CSFD / IMDB
Pouze Registrovaní uživatelé mohou prohlížet odkazy v tagu code! Registrujte se anebo se Přihlašte na fórum.


INFO
Citace:
Format : Matroska
Format version : Version 4 / Version 2
File size : 16.4 GiB
Duration : 2h 13mn
Overall bit rate : 17.5 Mbps

Video
Format : AVC
Format profile : High@L4.1
Duration : 2h 13mn
Bit rate : 15.6 Mbps
Width : 1 920 pixels
Height : 804 pixels
Display aspect ratio : 2.40:1
Frame rate mode : Constant
Frame rate : 23.976 (24000/1001) fps
Color space : YUV
Chroma subsampling : 4:2:0
Bit depth : 8 bits
Scan type : Progressive
Bits/(Pixel*Frame) : 0.421
Stream size : 14.6 GiB (89%)

Audio #1
Format : AC-3
Duration : 2h 13mn
Bit rate mode : Constant
Bit rate : 448 Kbps
Channel(s) : 6 channels
Channel positions : Front: L C R, Side: L R, LFE
Sampling rate : 48.0 KHz
Frame rate : 31.250 fps (1536 spf)
Compression mode : Lossy
Stream size : 429 MiB (3%)
Language : Czech
Default : Yes
Forced : Yes

Audio #2
Format : DTS
Duration : 2h 13mn
Bit rate mode : Constant
Bit rate : 1 509 Kbps
Channel(s) : 7 channels / 6 channels
Channel positions : Front: L C R, Side: L R, Back: C, LFE / Front: L C R, Side: L R, LFE
Sampling rate : 48.0 KHz
Frame rate : 93.750 fps (512 spf)
Bit depth : 24 bits
Compression mode : Lossy
Stream size : 1.41 GiB (9%)
Language : English
Default : No
Forced : No

Text #1
Format : UTF-8
Language : Czech
Default : Yes
Forced : Yes

Text #2
Format : UTF-8
Language : Czech
Default : No
Forced : No

Text #3
Format : UTF-8
Language : English
Default : No
Forced : No


FASTSHARE

Pouze Registrovaní uživatelé mohou prohlížet odkazy v tagu code! Registrujte se anebo se Přihlašte na fórum.


Pouze Registrovaní uživatelé mohou prohlížet odkazy v tagu code! Registrujte se anebo se Přihlašte na fórum.


Bez hesla. Balené bez kompresie. Pridaný záznam pre opravu dát 5%.


Naposledy upravil Sonty1 dne 21 kvě 2019, 11:32, celkově upraveno 1

Nahoru 
 Profil  
 
Zobrazit příspěvky za předchozí:  Seřadit podle  
 
Odeslat nové téma Odpovědět na téma  [ Příspěvků: 3 ] 

Obsah fóra » Filmy download » HD filmy a jiné » HD filmy cz/sk


 
Nemůžete zakládat nová témata v tomto fóru
Nemůžete odpovídat v tomto fóru
Nemůžete upravovat své příspěvky v tomto fóru
Nemůžete mazat své příspěvky v tomto fóru
Nemůžete přikládat soubory v tomto fóru

Hledat:
Přejít na:  







TOPlist
Český překlad – phpBB.cz
Karma functions powered by Karma MOD © 2007, 2009 m157y
phpBB SEO



..:: Žádný ze zobrazených souborů, které můžete nalézt na tomto fóru, nejsou umístěny na tomto serveru. Autoři stránky nenesou zodpovědnost za příspěvky odeslané užívateli,ani za jejich další akce,které by mohli vést k porušování zákonů. Za své příspěvky zodpovídají uživatelé. Nepoužívejte tyto stránky k distribuci a nebo k downloadu jakýchkoliv materiálů, ke kterým nemáte legální oprávnění a nebo licenci ::..