Vítejte na stránkách . Klikněte zde pro registraci

Uživatelské jméno:   Heslo:   Pamätat si ma  Skrýt můj online stav 
Registrovat    Přihlásit se    Fórum    Hledat    FAQ
Bannery     Kontakt   


Informační Panel

Forum je na prodej,v případě zájmu pište zde contact.php




www.centralwar.eu
www.centralwar.eu

Obsah fóra » Filmy download » HD filmy a jiné » HD filmy cz/sk




Odeslat nové téma Odpovědět na téma  [ Příspěvek: 1 ] 
Autor Zpráva
 Předmět příspěvku: Policajt ze San Francisca / Metro (1997)
 Příspěvek Napsal: 04 zář 2018, 19:10 
Offline
Registrovaní uživatelé

Registrován: 04 pro 2015, 21:42
ID Užívateľa: 65833

Online: 12d 11h 11m 1s
Poďakoval: 0 x
Obdržal: 1 x


Částka:
7,555.10



Karma: 0


Policajt ze San Francisca (Metro, 1997)

Obrázek

info

Pouze Registrovaní uživatelé mohou prohlížet odkazy v tagu code! Registrujte se anebo se Přihlašte na fórum.


Citace:
Scott Roper pracuje u sanfranciské policie jako "vyjednavač". Díky své mimořádné inteligenci, železným nervům a mrštnému jazyku dokáže většinou přesvědčit zločince držící rukojmí, aby se vzdali. Když ale Scott zjistí, že stojí tváří v tvář nebezpečnému psychopatovi, se kterým není rozumná řeč, dokáže bez váhání použít zbraň a zločince chladnokrevně zlikvidovat. Úspěšnost Scottových zásahů je stoprocentní a proto jeho nadřízení shovívavě mhouří obě oči nad jeho vášní pro luxusní auta a sázení na dostihové koně. Ovšem to, co prochází Scottovi v práci, nenalezlo pochopení u jeho přítelkyně Ronnie, která mu dala bez milosti kopačky. Když Scott dostane nového parťáka McCalla, není tím rozhodně nijak nadšen. Už proto, že chtěl na vlastní pěst vyšetřit vraždu svého staršího kolegy a přítele, kterého brutálně podřízl výjimečně nebezpečný a vychytralý padouch Korda. McCall si ale dokáže získat Scottovu důvěru a společnými silami po dramatické a zničující honičce v ulicích San Franciska Kordu zatknou. Scott se dokonce usmíří se svou láskou Ronnie a všichni by žili šťastně až do smrti, kdyby Korda zakrátko neprchl z vězení. A nechtěl se pomstít...(oficiální text distributora)


kvalita

Citace:
General
Unique ID : 222729163348746131456457190141518450305 (0xA7901396B1CF2F8F8384CB094C048E81)
Complete name : E:\Policajt ze San Francisca (Metro, 1997).mkv
Format : Matroska
Format version : Version 4 / Version 2
File size : 1.73 GiB
Duration : 1h 52mn
Overall bit rate : 2 191 Kbps
Encoded date : UTC 2016-03-23 15:27:27
Writing application : mkvmerge v8.4.0 ('A better way to fly') 64bit
Writing library : libebml v1.3.1 + libmatroska v1.4.2
DURATION : 01:52:48.032000000
NUMBER_OF_FRAMES : 211501
NUMBER_OF_BYTES : 162432768
_STATISTICS_WRITING_APP : mkvmerge v8.4.0 ('A better way to fly') 64bit
_STATISTICS_WRITING_DATE_UT : 2016-03-23 15:27:27
_STATISTICS_TAGS : BPS DURATION NUMBER_OF_FRAMES NUMBER_OF_BYTES

Video
ID : 1
Format : AVC
Format/Info : Advanced Video Codec
Format profile : High@L3
Format settings, CABAC : Yes
Format settings, ReFrames : 4 frames
Codec ID : V_MPEG4/ISO/AVC
Duration : 1h 52mn
Bit rate : 1 997 Kbps
Width : 708 pixels
Height : 434 pixels
Display aspect ratio : 2.35:1
Original display aspect rat : 16:10
Frame rate mode : Constant
Frame rate : 25.000 fps
Color space : YUV
Chroma subsampling : 4:2:0
Bit depth : 8 bits
Scan type : Progressive
Bits/(Pixel*Frame) : 0.260
Stream size : 1.54 GiB (89%)
Writing library : x264 core 80 r1376M 3feaec2
Encoding settings : cabac=1 / ref=4 / deblock=1:-1:-1 / analyse=0x3:0x133 / me=hex / subme=6 / psy=1 / psy_rd=1.0:0.0 / mixed_ref=1 / me_range=16 / chroma_me=1 / trellis=1 / 8x8dct=1 / cqm=0 / deadzone=21,11 / fast_pskip=0 / chroma_qp_offset=-2 / threads=1 / sliced_threads=0 / nr=0 / decimate=1 / mbaff=0 / constrained_intra=0 / bframes=3 / b_pyramid=0 / b_adapt=1 / b_bias=0 / direct=1 / wpredb=1 / wpredp=2 / keyint=250 / keyint_min=25 / scenecut=40 / rc_lookahead=40 / rc=2pass / mbtree=1 / bitrate=1997 / ratetol=1.0 / qcomp=0.60 / qpmin=10 / qpmax=51 / qpstep=4 / cplxblur=20.0 / qblur=0.5 / ip_ratio=1.40 / aq=1:1.00
Language : English
Default : Yes
Forced : No
DURATION : 01:52:48.000000000
NUMBER_OF_FRAMES : 169200
NUMBER_OF_BYTES : 1689383371
_STATISTICS_WRITING_APP : mkvmerge v8.4.0 ('A better way to fly') 64bit
_STATISTICS_WRITING_DATE_UT : 2016-03-23 15:27:27
_STATISTICS_TAGS : BPS DURATION NUMBER_OF_FRAMES NUMBER_OF_BYTES

Audio
ID : 2
Format : AC-3
Format/Info : Audio Coding 3
Format profile : Dolby Digital
Mode extension : CM (complete main)
Format settings, Endianness : Big
Codec ID : A_AC3
Duration : 1h 52mn
Bit rate mode : Constant
Bit rate : 192 Kbps
Channel(s) : 2 channels
Channel positions : Front: L R
Sampling rate : 48.0 KHz
Compression mode : Lossy
Stream size : 155 MiB (9%)
Default : Yes
Forced : No


download

Pouze Registrovaní uživatelé mohou prohlížet odkazy v tagu code! Registrujte se anebo se Přihlašte na fórum.


Naposledy upravil Stanley dne 05 zář 2018, 06:13, celkově upraveno 1
Přidána ikonka serveru


Nahoru 
 Profil  
 
Zobrazit příspěvky za předchozí:  Seřadit podle  
 
Odeslat nové téma Odpovědět na téma  [ Příspěvek: 1 ] 

Obsah fóra » Filmy download » HD filmy a jiné » HD filmy cz/sk


 
Nemůžete zakládat nová témata v tomto fóru
Nemůžete odpovídat v tomto fóru
Nemůžete upravovat své příspěvky v tomto fóru
Nemůžete mazat své příspěvky v tomto fóru
Nemůžete přikládat soubory v tomto fóru

Hledat:
Přejít na:  







TOPlist
Český překlad – phpBB.cz
Karma functions powered by Karma MOD © 2007, 2009 m157y
phpBB SEO



..:: Žádný ze zobrazených souborů, které můžete nalézt na tomto fóru, nejsou umístěny na tomto serveru. Autoři stránky nenesou zodpovědnost za příspěvky odeslané užívateli,ani za jejich další akce,které by mohli vést k porušování zákonů. Za své příspěvky zodpovídají uživatelé. Nepoužívejte tyto stránky k distribuci a nebo k downloadu jakýchkoliv materiálů, ke kterým nemáte legální oprávnění a nebo licenci ::..