Vítejte na stránkách . Klikněte zde pro registraci

Uživatelské jméno:   Heslo:   Pamätat si ma  Skrýt můj online stav 
Registrovat    Přihlásit se    Fórum    Hledat    FAQ
Bannery     Kontakt   


Informační Panel

Screeny,které budou nad klasickou velikost,půjdou do koše!!! gb




www.centralwar.eu
www.centralwar.eu

Obsah fóra » Filmy download » HD filmy a jiné » HD filmy cz/sk




Odeslat nové téma Odpovědět na téma  [ Příspěvků: 2 ] 
Autor Zpráva
 Předmět příspěvku: Jurský svět: Zánik říše / Jurassic World: Fallen...(2018)
 Příspěvek Napsal: 27 zář 2018, 23:39 
Offline
Registrovaní uživatelé
Uživatelský avatar

Registrován: 01 zář 2016, 21:25
ID Užívateľa: 66261

Online: 4d 3h 18m 59s
Poďakoval: 0 x
Obdržal: 6 x


Částka:
14,167.05



Karma: 0


Jurský svět: Zánik říše / Jurassic World: Fallen Kingdom (2018)
Jedna se o dve verze 720pHD CZ a 1080pHD CZ


Obrázek


Jazyk: CZ 5.1 DTS / ENG DTS
Titulky: CZ + forced / ENG


Akční / Dobrodružný / Sci-Fi

USA / Španělsko, 2018, 130 min

Režie: J.A. Bayona
Scénář: Colin Trevorrow, Derek Connolly
Kamera: Óscar Faura
Hudba: Michael Giacchino
Hrají: Chris Pratt, Bryce Dallas Howard, Jeff Goldblum, Ted Levine, Toby Jones, James Cromwell, B.D. Wong, Rafe Spall, Daniella Pineda, Geraldine Chaplin, Peter Jason, Justice Smith, Isabella Sermon, Kevin Layne, Michael Papajohn, Robert Emms, Kamil Lemieszewski, Charlie Rawes, Cory Peterson, Ronan Summers
Producenti: Frank Marshall, Patrick Crowley, Belén Atienza
Střih: Bernat Vilaplana
Scénografie: Andy Nicholson
Kostýmy: Sammy Sheldon


Před čtyřmi lety nás dinosauři porazili. Alespoň na Isla Nublar, exotickém ostrově, kde prosperoval unikátní zábavní park Jurský svět, než se jeho exponátům podařilo utéct z klecí. Ve finále jednoho z nejúspěšnějších filmů všech dob opustili ostrov poslední lidé a nechali ostrov napospas prehistorickým tvorům. Jenže teď se za nimi musí vrátit. Proč? Protože na ostrově se probudila tamní sopka a dinosaurům už podruhé v dějinách hrozí vyhynutí. Claire (Bryce Dallas Howard) se z upjaté manažerky parku proměnila v aktivistku, která je chce za každou cenu zachránit. A Owena (Chris Pratt) na ostrov žene touha najít a spasit Blue, inteligentního ještěra, jehož dokázal vychovat a částečně vycvičit, a po němž se po zániku parku slehla zem. Na Isla Nublar jim však nehrozí jenom sežrání, zašlápnutí či spálení tekoucí lávou. Hned po příjezdu se stanou očitými svědky a nedobrovolnými aktéry falešné hry, která v konečném důsledku může změnit život na celé planetě a vrátit ho o pár miliónů let zpátky.

Pouze Registrovaní uživatelé mohou prohlížet odkazy v tagu code! Registrujte se anebo se Přihlašte na fórum.



Pouze Registrovaní uživatelé mohou prohlížet odkazy v tagu code! Registrujte se anebo se Přihlašte na fórum.


Pouze Registrovaní uživatelé mohou prohlížet odkazy v tagu code! Registrujte se anebo se Přihlašte na fórum.


720pHD
Pouze Registrovaní uživatelé mohou prohlížet odkazy v tagu code! Registrujte se anebo se Přihlašte na fórum.


1080pHD
Pouze Registrovaní uživatelé mohou prohlížet odkazy v tagu code! Registrujte se anebo se Přihlašte na fórum.

_________________
V případě že ukazuje po stažení souboru z Fastshare u souboru 0MB je to způsobeno že to stahujete přes volné stahování, soubory jsou v pořádku a při stažení přes kredit je i velikost těchto souborů v pořádku.


Nahoru 
 Profil  
 
 Předmět příspěvku: Jurský svět: Zánik říše / Jurassic World: Fallen...(2018)
 Příspěvek Napsal: 04 říj 2018, 11:49 
Offline
Registrovaní uživatelé

Registrován: 27 led 2016, 20:28
ID Užívateľa: 65951

Online: 12d 6h 13m 14s
Poďakoval: 0 x
Obdržal: 0 x


Částka:
4,310.85



Karma: 0


Jurský svět: Zánik říše / Jurassic World: Fallen Kingdom (2018)

Obrázek

CSFD / IMDB
Pouze Registrovaní uživatelé mohou prohlížet odkazy v tagu code! Registrujte se anebo se Přihlašte na fórum.


Video: Bluray 1080p
Audio: CZ AC-3 5.1ch, EN DTS 7.1ch/5.1ch
Titulky: CZ, CZ forced, EN


INFO
Citace:
Format : Matroska
Format version : Version 4 / Version 2
File size : 12.9 GiB
Duration : 2h 8mn
Overall bit rate : 14.4 Mbps

Video
Format : AVC
Format profile : High@L4.1
Duration : 2h 8mn
Bit rate : 9 468 Kbps
Width : 1 920 pixels
Height : 808 pixels
Display aspect ratio : 2.40:1
Frame rate mode : Constant
Frame rate : 23.976 (24000/1001) fps
Color space : YUV
Chroma subsampling : 4:2:0
Bit depth : 8 bits
Scan type : Progressive
Bits/(Pixel*Frame) : 0.255
Stream size : 8.48 GiB (66%)

Audio #1
Format : AC-3
Duration : 2h 8mn
Bit rate mode : Constant
Bit rate : 640 Kbps
Channel(s) : 6 channels
Channel positions : Front: L C R, Side: L R, LFE
Sampling rate : 48.0 KHz
Frame rate : 31.250 fps (1536 spf)
Compression mode : Lossy
Stream size : 587 MiB (4%)
Language : Czech
Default : No
Forced : No

Audio #2
Format : DTS
Duration : 2h 8mn
Bit rate mode : Variable / Variable / Constant
Bit rate : 4 231 Kbps / 4 231 Kbps / 1 509 Kbps
Channel(s) : Object Based / 8 channels / 6 channels
Channel positions : Object Based / Front: L C R, Side: L R, Back: L R, LFE / Front: L C R, Side: L R, LFE
Sampling rate : / 48.0 KHz / 48.0 KHz
Frame rate : 93.750 fps (512 spf)
Bit depth : / 24 bits / 24 bits
Compression mode : / Lossless / Lossy
Stream size : 3.79 GiB (29%)
Language : English
Default : Yes
Forced : No

Text #1
Format : UTF-8
Language : English
Default : Yes
Forced : No

Text #2
Format : PGS
Language : English
Default : No
Forced : No

Text #3
Format : UTF-8
Language : Czech
Default : No
Forced : No

Text #4
Format : UTF-8
Language : Czech
Default : No
Forced : Yes

Text #5
Format : ASS
Language : Czech
Default : No
Forced : Yes


FASTSHARE

Pouze Registrovaní uživatelé mohou prohlížet odkazy v tagu code! Registrujte se anebo se Přihlašte na fórum.


Pouze Registrovaní uživatelé mohou prohlížet odkazy v tagu code! Registrujte se anebo se Přihlašte na fórum.


Bez hesla. Balené bez kompresie. Pridaný záznam pre opravu dát 5%.

------------------------------------------------------------------------------------------------------------------------------

Video: UHD Bluray 2160p
Audio: CZ AC-3 5.1ch
Titulky: CZ, CZ forced


INFO
Citace:
Format : Matroska
Format version : Version 4 / Version 2
File size : 12.1 GiB
Duration : 2 h 8 min
Overall bit rate : 13.5 Mb/s

Video
Format : HEVC
Format profile : Main 10@L5.1@High
Duration : 2 h 8 min
Bit rate : 12.8 Mb/s
Width : 3 840 pixels
Height : 1 600 pixels
Display aspect ratio : 2.40:1
Frame rate mode : Constant
Frame rate : 23.976 (24000/1001) FPS
Color space : YUV
Chroma subsampling : 4:2:0
Bit depth : 10 bits
Bits/(Pixel*Frame) : 0.087
Stream size : 11.5 GiB (95%)

Audio
Format : AC-3
Duration : 2 h 8 min
Bit rate mode : Constant
Bit rate : 640 kb/s
Channel(s) : 6 channels
Channel positions : Front: L C R, Side: L R, LFE
Sampling rate : 48.0 kHz
Frame rate : 31.250 FPS (1536 SPF)
Bit depth : 16 bits
Compression mode : Lossy
Stream size : 587 MiB (5%)
Language : Czech
Default : Yes
Forced : No

Text #1
Format : UTF-8
Language : Czech
Default : Yes
Forced : Yes

Text #2
Format : ASS
Language : Czech
Default : No
Forced : Yes


FASTSHARE

Pouze Registrovaní uživatelé mohou prohlížet odkazy v tagu code! Registrujte se anebo se Přihlašte na fórum.


Pouze Registrovaní uživatelé mohou prohlížet odkazy v tagu code! Registrujte se anebo se Přihlašte na fórum.


Bez hesla. Balené bez kompresie. Pridaný záznam pre opravu dát 5%.


Naposledy upravil Sonty1 dne 26 kvě 2019, 10:52, celkově upraveno 1

Nahoru 
 Profil  
 
Zobrazit příspěvky za předchozí:  Seřadit podle  
 
Odeslat nové téma Odpovědět na téma  [ Příspěvků: 2 ] 

Obsah fóra » Filmy download » HD filmy a jiné » HD filmy cz/sk


 
Nemůžete zakládat nová témata v tomto fóru
Nemůžete odpovídat v tomto fóru
Nemůžete upravovat své příspěvky v tomto fóru
Nemůžete mazat své příspěvky v tomto fóru
Nemůžete přikládat soubory v tomto fóru

Hledat:
Přejít na:  







TOPlist
Český překlad – phpBB.cz
Karma functions powered by Karma MOD © 2007, 2009 m157y
phpBB SEO



..:: Žádný ze zobrazených souborů, které můžete nalézt na tomto fóru, nejsou umístěny na tomto serveru. Autoři stránky nenesou zodpovědnost za příspěvky odeslané užívateli,ani za jejich další akce,které by mohli vést k porušování zákonů. Za své příspěvky zodpovídají uživatelé. Nepoužívejte tyto stránky k distribuci a nebo k downloadu jakýchkoliv materiálů, ke kterým nemáte legální oprávnění a nebo licenci ::..