Vítejte na stránkách . Klikněte zde pro registraci

Uživatelské jméno:   Heslo:   Pamätat si ma  Skrýt můj online stav 
Registrovat    Přihlásit se    Fórum    Hledat    FAQ
Bannery     Kontakt   


Informační Panel

wel




www.centralwar.eu
www.centralwar.eu

Obsah fóra » Filmy download » HD filmy a jiné » HD filmy cz/sk




Odeslat nové téma Odpovědět na téma  [ Příspěvků: 2 ] 
Autor Zpráva
 Předmět příspěvku: Mrakodrap / Skyscraper (2018)
 Příspěvek Napsal: 25 říj 2018, 21:53 
Offline
Registrovaní uživatelé
Uživatelský avatar

Registrován: 01 zář 2016, 21:25
ID Užívateľa: 66261

Online: 4d 3h 18m 59s
Poďakoval: 0 x
Obdržal: 6 x


Částka:
14,252.25



Karma: 0


Mrakodrap / Skyscraper (2018)


Skyscraper.2018.1080p.BluRay.CZ.2CH.EN.6CH


Obrázek

Pouze Registrovaní uživatelé mohou prohlížet odkazy v tagu code! Registrujte se anebo se Přihlašte na fórum.


Jazyk: CZ (2CH),EN (6CH)
Titulky:CZ vynucene,CZ,ENG

Akční / Drama / Thriller / Krimi
USA, 2018, 103 min

Režie: Rawson Marshall Thurber
Scénář: Rawson Marshall Thurber
Kamera: Robert Elswit
Hudba: Steve Jablonsky
Hrají: Dwayne Johnson, Neve Campbell, Pablo Schreiber, Noah Taylor, Roland Møller, Chin Han, Byron Mann, Hannah Quinlivan, McKenna Roberts, Noah Cottrell, Paul McGillion, Kevin Rankin, Matt O'Leary, Tzi Ma, Venus Terzo, Beatrice King, Adrian Holmes, Elfina Luk, Kathy Wu, Vivian Full
Producenti: Beau Flynn, Hiram Garcia, Dwayne Johnson, Mary Parent

Perla je nejvyšší a zároveň nejlépe zabezpečená budova na světě. Přesto její majitelé najmou velezkušeného bezpečnostního experta Willa Sawyera (Dwayne Johnson), aby to oficiálně potvrdil. Jenže pak začne v budově hořet a o technickou závadu se rozhodně nejedná. Will, coby bývalý šéf týmu FBI, který se specializoval na záchranu rukojmích, zažil už leccos, ale tohle je přece jen silná káva...


Pouze Registrovaní uživatelé mohou prohlížet odkazy v tagu code! Registrujte se anebo se Přihlašte na fórum.


Pouze Registrovaní uživatelé mohou prohlížet odkazy v tagu code! Registrujte se anebo se Přihlašte na fórum.

_________________
V případě že ukazuje po stažení souboru z Fastshare u souboru 0MB je to způsobeno že to stahujete přes volné stahování, soubory jsou v pořádku a při stažení přes kredit je i velikost těchto souborů v pořádku.


Nahoru 
 Profil  
 
 Předmět příspěvku: Mrakodrap / Skyscraper (2018)
 Příspěvek Napsal: 20 lis 2018, 17:13 
Offline
Registrovaní uživatelé

Registrován: 27 led 2016, 20:28
ID Užívateľa: 65951

Online: 11d 9h 7m 20s
Poďakoval: 0 x
Obdržal: 0 x


Částka:
3,793.50



Karma: 0


Mrakodrap / Skyscraper (2018)

Obrázek

Video/Zdroj: BluRay 1080p
Audio: CZ AC-3 2ch, EN AC-3 5.1ch
Titulky: CZ, CZ forced, EN


CSFD / IMDB
Pouze Registrovaní uživatelé mohou prohlížet odkazy v tagu code! Registrujte se anebo se Přihlašte na fórum.


INFO
Citace:
Format : Matroska
Format version : Version 4 / Version 2
File size : 8.13 GiB
Duration : 1h 42mn
Overall bit rate : 11.4 Mbps

Video
Format : AVC
Format profile : High@L4.1
Duration : 1h 42mn
Bit rate : 10.1 Mbps
Width : 1 920 pixels
Height : 800 pixels
Display aspect ratio : 2.40:1
Frame rate mode : Constant
Frame rate : 23.976 (24000/1001) fps
Color space : YUV
Chroma subsampling : 4:2:0
Bit depth : 8 bits
Scan type : Progressive
Bits/(Pixel*Frame) : 0.273
Stream size : 7.19 GiB (88%)

Audio #1
Format : AC-3
Duration : 1h 42mn
Bit rate mode : Constant
Bit rate : 640 Kbps
Channel(s) : 6 channels
Channel positions : Front: L C R, Side: L R, LFE
Sampling rate : 48.0 KHz
Frame rate : 31.250 fps (1536 spf)
Compression mode : Lossy
Stream size : 469 MiB (6%)
Language : English
Default : Yes
Forced : No

Audio #2
Format : AC-3
Duration : 1h 42mn
Bit rate mode : Constant
Bit rate : 224 Kbps
Channel(s) : 2 channels
Channel positions : Front: L R
Sampling rate : 48.0 KHz
Frame rate : 31.250 fps (1536 spf)
Compression mode : Lossy
Stream size : 164 MiB (2%)
Language : Czech
Default : No
Forced : Yes

Audio #3
Format : AC-3
Duration : 1h 42mn
Bit rate mode : Constant
Bit rate : 448 Kbps
Channel(s) : 6 channels
Channel positions : Front: L C R, Side: L R, LFE
Sampling rate : 48.0 KHz
Frame rate : 31.250 fps (1536 spf)
Compression mode : Lossy
Stream size : 328 MiB (4%)
Language : English
Default : No
Forced : No

Text #1
Format : UTF-8
Language : Czech
Default : Yes
Forced : Yes

Text #2
Format : UTF-8
Language : Czech
Default : No
Forced : No

Text #3
Format : VobSub
Language : English
Default : No
Forced : No


FASTSHARE

Pouze Registrovaní uživatelé mohou prohlížet odkazy v tagu code! Registrujte se anebo se Přihlašte na fórum.


Nahoru 
 Profil  
 
Zobrazit příspěvky za předchozí:  Seřadit podle  
 
Odeslat nové téma Odpovědět na téma  [ Příspěvků: 2 ] 

Obsah fóra » Filmy download » HD filmy a jiné » HD filmy cz/sk


 
Nemůžete zakládat nová témata v tomto fóru
Nemůžete odpovídat v tomto fóru
Nemůžete upravovat své příspěvky v tomto fóru
Nemůžete mazat své příspěvky v tomto fóru
Nemůžete přikládat soubory v tomto fóru

Hledat:
Přejít na:  







TOPlist
Český překlad – phpBB.cz
Karma functions powered by Karma MOD © 2007, 2009 m157y
phpBB SEO



..:: Žádný ze zobrazených souborů, které můžete nalézt na tomto fóru, nejsou umístěny na tomto serveru. Autoři stránky nenesou zodpovědnost za příspěvky odeslané užívateli,ani za jejich další akce,které by mohli vést k porušování zákonů. Za své příspěvky zodpovídají uživatelé. Nepoužívejte tyto stránky k distribuci a nebo k downloadu jakýchkoliv materiálů, ke kterým nemáte legální oprávnění a nebo licenci ::..