Vítejte na stránkách . Klikněte zde pro registraci

Uživatelské jméno:   Heslo:   Pamätat si ma  Skrýt můj online stav 
Registrovat    Přihlásit se    Fórum    Hledat    FAQ
Bannery     Kontakt   


Informační Panel

wel




www.centralwar.eu
www.centralwar.eu

Obsah fóra » Filmy download » HD filmy a jiné » HD filmy cz/sk




Odeslat nové téma Odpovědět na téma  [ Příspěvků: 2 ] 
Autor Zpráva
 Předmět příspěvku: MEG: Monstrum z hlubin / The Meg (2018)
 Příspěvek Napsal: 13 lis 2018, 18:41 
Offline
Registrovaní uživatelé
Uživatelský avatar

Registrován: 23 kvě 2010, 09:37
ID Užívateľa: 38343

Online: 90d 21h 15m 8s
Poďakoval: 1 x
Obdržal: 2 x


Částka:
27,421.00



Karma: 0


Obrázek


Pouze Registrovaní uživatelé mohou prohlížet odkazy v tagu code! Registrujte se anebo se Přihlašte na fórum.


Akční / Sci-Fi / Horor / Thriller
USA, 2018, 113 min

Režie: Jon Turteltaub
Předloha: Steve Alten (kniha)
Scénář: Dean Georgaris, Jon Hoeber, Erich Hoeber
Kamera: Tom Stern
Hudba: Harry Gregson-Williams
Hrají: Jason Statham, Ruby Rose, Robert Taylor, Cliff Curtis, Rainn Wilson, Bingbing Li

Jason Statham hraje kapitána Taylora, který před pár lety musel opustit na dně Mariánského příkopu svou posádku, když na podmořskou stanici cosi zaútočilo. Teď je to cosi zpátky a vypadá to, že jde o pravěkého žraloka megalodona a Taylor dostane šanci se mu postavit znovu. Má ale vůbec proti největšímu predátorovi šanci?


Obrázek

File size : 5.50 GiB
Duration : 1 h 53 min
Overall bit rate : 6 956 kb/s


Video
Format : AVC
Format profile : High@L4.1
Format settings : CABAC / 12 Ref Frames
Codec ID : V_MPEG4/ISO/AVC
Bit rate : 5 000 kb/s
Width : 1 280 pixels
Height : 536 pixels
Display aspect ratio : 2.40:1
Frame rate : 23.976 (24000/1001) FPS


Audio #1
Format : AC-3
Bit rate : 448 kb/s
Channel(s) : 6 channels
Channel positions : Front: L C R, Side: L R, LFE
Sampling rate : 48.0 kHz
Frame rate : 31.250 FPS (1536 SPF)
Bit depth : 16 bits
Language : Czech


Audio #2
Format : DTS
Bit rate : 1 509 kb/s
Channel(s) : 6 channels
Channel positions : Front: L C R, Side: L R, LFE
Sampling rate : 48.0 kHz
Frame rate : 93.750 FPS (512 SPF)
Bit depth : 16 bits
Language : English

Titulky FULL + FORCED
Language : Czech
Language : English


Pouze Registrovaní uživatelé mohou prohlížet odkazy v tagu code! Registrujte se anebo se Přihlašte na fórum.


Obrázek

File size : 11.8 GiB
Duration : 1 h 53 min
Overall bit rate : 15.0 Mb/s

Video
Format : AVC
Format profile : High@L4.1
Format settings : CABAC / 5 Ref Frames
Codec ID : V_MPEG4/ISO/AVC
Bit rate : 13.0 Mb/s
Width : 1 920 pixels
Height : 804 pixels
Display aspect ratio : 2.40:1
Frame rate : 23.976 (24000/1001) FPS

Audio #1
Format : AC-3
Bit rate : 448 kb/s
Channel(s) : 6 channels
Channel positions : Front: L C R, Side: L R, LFE
Sampling rate : 48.0 kHz
Frame rate : 31.250 FPS (1536 SPF)
Bit depth : 16 bits
Language : Czech


Audio #2
Format : DTS
Bit rate : 1 509 kb/s
Channel(s) : 6 channels
Channel positions : Front: L C R, Side: L R, LFE
Sampling rate : 48.0 kHz
Frame rate : 93.750 FPS (512 SPF)
Bit depth : 16 bits
Language : English

Titulky FULL + FORCED
Language : Czech
Language : English


1 part
Pouze Registrovaní uživatelé mohou prohlížet odkazy v tagu code! Registrujte se anebo se Přihlašte na fórum.


2 x rar
Pouze Registrovaní uživatelé mohou prohlížet odkazy v tagu code! Registrujte se anebo se Přihlašte na fórum.


Obrázek

File size : 20.0 GiB
Duration : 1 h 53 min
Overall bit rate : 25.3 Mb/s

Video
Format : HEVC
Commercial name : HDR10
Format profile : Main 10@L5.1@High
Codec ID : V_MPEGH/ISO/HEVC
Duration : 1 h 53 min
Bit rate : 19.5 Mb/s
Width : 3 840 pixels
Height : 1 608 pixels
Display aspect ratio : 2.40:1
Frame rate : 23.976 (24000/1001) FPS

Audio #1
Format : AC-3
Bit rate : 448 kb/s
Channel(s) : 6 channels
Channel positions : Front: L C R, Side: L R, LFE
Sampling rate : 48.0 kHz
Frame rate : 31.250 FPS (1536 SPF)
Bit depth : 16 bits
Language : Czech

Audio #2
Format : TrueHD
Format profile : TrueHD+Atmos / TrueHD
Bit rate : 3 051 kb/s
Maximum bit rate : 5 067 kb/s
Channel(s) : Object Based / 8 channels
Channel positions : Object Based / Front: L C R, Side: L R, Back: L R, LFE
Sampling rate : / 48.0 kHz
Frame rate : 1 200.000 FPS (40 SPF)
Language : English


Audio #3
Format : DTS
Bit rate : 2 207 kb/s / 1 509 kb/s
Channel(s) : 6 channels
Channel positions : Front: L C R, Side: L R, LFE
Sampling rate : 48.0 kHz
Frame rate : 93.750 FPS (512 SPF)
Bit depth : 16 bits
Language : English

Titulky FULL + FORCED
Language : Czech
Language : English


1 link

Pouze Registrovaní uživatelé mohou prohlížet odkazy v tagu code! Registrujte se anebo se Přihlašte na fórum.


3x rar

Pouze Registrovaní uživatelé mohou prohlížet odkazy v tagu code! Registrujte se anebo se Přihlašte na fórum.


Naposledy upravil Stanley dne 13 lis 2018, 20:03, celkově upraveno 1
Smazány mrtvé linky


Nahoru 
 Profil  
 
 Předmět příspěvku: MEG: Monstrum z hlubin / The Meg (2018)
 Příspěvek Napsal: 23 lis 2018, 18:07 
Offline
Registrovaní uživatelé

Registrován: 27 led 2016, 20:28
ID Užívateľa: 65951

Online: 10d 5h 21m 49s
Poďakoval: 0 x
Obdržal: 0 x


Částka:
3,419.55



Karma: 0


MEG: Monstrum z hlubin / MEG, The (2018)

Video/Zdroj: BluRay 1080p
Audio: CZ AC-3 5.1ch , EN DTS 5.1ch
Titulky: CZ, CZ forced


Obrázek

CSFD / IMDB
Pouze Registrovaní uživatelé mohou prohlížet odkazy v tagu code! Registrujte se anebo se Přihlašte na fórum.


INFO
Citace:
Format : Matroska
Format version : Version 2
File size : 14.9 GiB
Duration : 1h 53mn
Overall bit rate : 18.8 Mbps

Video
Format : AVC
Format profile : High@L4.1
Duration : 1h 53mn
Bit rate : 16.8 Mbps
Width : 1 920 pixels
Height : 804 pixels
Display aspect ratio : 2.40:1
Frame rate mode : Constant
Frame rate : 23.976 (24000/1001) fps
Color space : YUV
Chroma subsampling : 4:2:0
Bit depth : 8 bits
Scan type : Progressive
Bits/(Pixel*Frame) : 0.455
Stream size : 13.3 GiB (90%)

Audio #1
Format : AC-3
Duration : 1h 53mn
Bit rate mode : Constant
Bit rate : 448 Kbps
Channel(s) : 6 channels
Channel positions : Front: L C R, Side: L R, LFE
Sampling rate : 48.0 KHz
Frame rate : 31.250 fps (1536 spf)
Compression mode : Lossy
Stream size : 363 MiB (2%)
Language : Czech
Default : Yes
Forced : No

Audio #2
Format : DTS
Duration : 1h 53mn
Bit rate mode : Constant
Bit rate : 1 509 Kbps
Channel(s) : 6 channels
Channel positions : Front: L C R, Side: L R, LFE
Sampling rate : 48.0 KHz
Frame rate : 93.750 fps (512 spf)
Bit depth : 16 bits
Compression mode : Lossy
Stream size : 1.19 GiB (8%)
Language : English
Default : No
Forced : No

Text #1
Format : UTF-8
Language : Czech
Default : Yes
Forced : Yes

Text #2
Format : UTF-8
Language : Czech
Default : No
Forced : No

Text #3
Format : ASS
Language : Czech
Default : No
Forced : Yes

Text #4
Format : ASS
Language : Czech
Default : No
Forced : No


FASTSHARE
Pouze Registrovaní uživatelé mohou prohlížet odkazy v tagu code! Registrujte se anebo se Přihlašte na fórum.


Pouze Registrovaní uživatelé mohou prohlížet odkazy v tagu code! Registrujte se anebo se Přihlašte na fórum.


Bez hesla. Balené bez kompresie. Pridaný záznam pre opravu dát 5%.


Nahoru 
 Profil  
 
Zobrazit příspěvky za předchozí:  Seřadit podle  
 
Odeslat nové téma Odpovědět na téma  [ Příspěvků: 2 ] 

Obsah fóra » Filmy download » HD filmy a jiné » HD filmy cz/sk


 
Nemůžete zakládat nová témata v tomto fóru
Nemůžete odpovídat v tomto fóru
Nemůžete upravovat své příspěvky v tomto fóru
Nemůžete mazat své příspěvky v tomto fóru
Nemůžete přikládat soubory v tomto fóru

Hledat:
Přejít na:  







TOPlist
Český překlad – phpBB.cz
Karma functions powered by Karma MOD © 2007, 2009 m157y
phpBB SEO



..:: Žádný ze zobrazených souborů, které můžete nalézt na tomto fóru, nejsou umístěny na tomto serveru. Autoři stránky nenesou zodpovědnost za příspěvky odeslané užívateli,ani za jejich další akce,které by mohli vést k porušování zákonů. Za své příspěvky zodpovídají uživatelé. Nepoužívejte tyto stránky k distribuci a nebo k downloadu jakýchkoliv materiálů, ke kterým nemáte legální oprávnění a nebo licenci ::..