http://www.centralwar.eu/

Extrémní rychlost / Overdrive (2017)
http://www.centralwar.eu/viewtopic.php?f=496&t=219008
Stránka 1 z 1

Autor:  Sonty1 [ 29 lis 2018, 11:10 ]
Předmět příspěvku:  Extrémní rychlost / Overdrive (2017)

Extrémní rychlost / Overdrive (2017)

Video/Zdroj: BDRip
Audio: CZ AC-3 2ch, EN DTS 5.1ch
Titulky: CZ


Obrázek

CSFD / IMDB
Pouze Registrovaní uživatelé mohou prohlížet odkazy v tagu code! Registrujte se anebo se Přihlašte na fórum.


INFO
Citace:
Format : Matroska
Format version : Version 4 / Version 2
File size : 6.70 GiB
Duration : 1h 33mn
Overall bit rate : 10.3 Mbps

Video
Format : AVC
Format profile : High@L4.1
Duration : 1h 33mn
Bit rate : 8 532 Kbps
Width : 1 920 pixels
Height : 808 pixels
Display aspect ratio : 2.40:1
Frame rate mode : Constant
Frame rate : 23.976 fps
Color space : YUV
Chroma subsampling : 4:2:0
Bit depth : 8 bits
Scan type : Progressive
Bits/(Pixel*Frame) : 0.229
Stream size : 5.57 GiB (83%)

Audio #1
Format : AC-3
Duration : 1h 33mn
Bit rate mode : Constant
Bit rate : 224 Kbps
Channel(s) : 2 channels
Channel positions : Front: L R
Sampling rate : 48.0 KHz
Frame rate : 31.250 fps (1536 spf)
Compression mode : Lossy
Stream size : 150 MiB (2%)
Language : Czech
Default : No
Forced : No

Audio #2
Format : DTS
Duration : 1h 33mn
Bit rate mode : Constant
Bit rate : 1 509 Kbps
Channel(s) : 6 channels
Channel positions : Front: L C R, Side: L R, LFE
Sampling rate : 48.0 KHz
Frame rate : 93.750 fps (512 spf)
Bit depth : 24 bits
Compression mode : Lossy
Stream size : 1 009 MiB (15%)
Language : English
Default : Yes
Forced : No

Text
Format : UTF-8
Language : Czech
Default : Yes
Forced : No


FASTSHARE

Pouze Registrovaní uživatelé mohou prohlížet odkazy v tagu code! Registrujte se anebo se Přihlašte na fórum.

Stránka 1 z 1 Všechny časy jsou v UTC + 1 hodina [ Letní čas ]
Powered by phpBB © 2000, 2002, 2005, 2007 phpBB Group
http://www.phpbb.com/