Vítejte na stránkách . Klikněte zde pro registraci

Uživatelské jméno:   Heslo:   Pamätat si ma  Skrýt můj online stav 
Registrovat    Přihlásit se    Fórum    Hledat    FAQ
Bannery     Kontakt   


Informační Panel

wel




www.centralwar.eu
www.centralwar.eu

Obsah fóra » Filmy download » HD filmy a jiné » HD filmy cz/sk




Odeslat nové téma Odpovědět na téma  [ Příspěvek: 1 ] 
Autor Zpráva
 Předmět příspěvku: Predátor: Evoluce / Predator, The (2018)
 Příspěvek Napsal: 31 pro 2018, 21:39 
Offline
Registrovaní uživatelé

Registrován: 27 led 2016, 20:28
ID Užívateľa: 65951

Online: 10d 13h 2m 16s
Poďakoval: 0 x
Obdržal: 0 x


Částka:
3,530.00



Karma: 0


Predátor: Evoluce / Predator, The (2018)

Video/Zdroj: UHD BluRay 2160p
Audio: CZ AC-3 5.1ch, EN Atmos/TrueHD 7.1ch, EN AC-3 5.1ch
Titulky: CZ, CZ forced, EN, EN forced


Obrázek

CSFD / IMDB
Pouze Registrovaní uživatelé mohou prohlížet odkazy v tagu code! Registrujte se anebo se Přihlašte na fórum.


INFO
Citace:
Format : Matroska
Format version : Version 4 / Version 2
File size : 21.6 GiB
Duration : 1 h 46 min
Overall bit rate mode : Variable
Overall bit rate : 28.9 Mb/s

Video
Format : HEVC
Format profile : Main 10@L5.1@High
Duration : 1 h 46 min
Bit rate : 22.6 Mb/s
Width : 3 840 pixels
Height : 1 608 pixels
Display aspect ratio : 2.40:1
Frame rate mode : Constant
Frame rate : 23.976 (24000/1001) FPS
Color space : YUV
Chroma subsampling : 4:2:0 (Type 2)
Bit depth : 10 bits
Bits/(Pixel*Frame) : 0.153
Stream size : 16.9 GiB (78%)

Audio #1
Format : AC-3
Duration : 1 h 46 min
Bit rate mode : Constant
Bit rate : 448 kb/s
Channel(s) : 6 channels
Channel positions : Front: L C R, Side: L R, LFE
Sampling rate : 48.0 kHz
Frame rate : 31.250 FPS (1536 SPF)
Bit depth : 16 bits
Compression mode : Lossy
Stream size : 343 MiB (2%)
Language : Czech

Audio #2
Format : TrueHD
Format profile : TrueHD+Atmos / TrueHD
Duration : 1 h 46 min
Bit rate mode : Variable
Bit rate : 5 087 kb/s
Maximum bit rate : 8 853 kb/s
Channel(s) : Object Based / 8 channels
Channel positions : Object Based / Front: L C R, Side: L R, Back: L R, LFE
Sampling rate : / 48.0 kHz
Frame rate : 1 200.000 FPS (40 SPF)
Compression mode : Lossless
Stream size : 3.80 GiB (18%)
Language : English

Audio #3
Format : AC-3
Duration : 1 h 46 min
Bit rate mode : Constant
Bit rate : 640 kb/s
Channel(s) : 6 channels
Channel positions : Front: L C R, Side: L R, LFE
Sampling rate : 48.0 kHz
Frame rate : 31.250 FPS (1536 SPF)
Bit depth : 16 bits
Compression mode : Lossy
Stream size : 490 MiB (2%)
Language : English

Text #1
Format : UTF-8
Language : Czech
Default : No
Forced : No

Text #2
Format : UTF-8
Language : Czech
Default : No
Forced : No

Text #3
Format : UTF-8
Language : English
Default : Yes
Forced : Yes

Text #4
Format : UTF-8
Language : English
Default : No
Forced : No

Text #5
Format : UTF-8
Language : English
Default : No
Forced : No

Text #6
Format : PGS
Language : English
Default : No
Forced : No

Text #7
Format : PGS
Language : English
Default : No
Forced : No


FASTSHARE
Pouze Registrovaní uživatelé mohou prohlížet odkazy v tagu code! Registrujte se anebo se Přihlašte na fórum.


Bez hesla. Balené bez kompresie. Pridaný záznam pre opravu dát 5%.


Naposledy upravil Sonty1 dne 05 led 2019, 17:19, celkově upraveno 1

Nahoru 
 Profil  
 
Zobrazit příspěvky za předchozí:  Seřadit podle  
 
Odeslat nové téma Odpovědět na téma  [ Příspěvek: 1 ] 

Obsah fóra » Filmy download » HD filmy a jiné » HD filmy cz/sk


 
Nemůžete zakládat nová témata v tomto fóru
Nemůžete odpovídat v tomto fóru
Nemůžete upravovat své příspěvky v tomto fóru
Nemůžete mazat své příspěvky v tomto fóru
Nemůžete přikládat soubory v tomto fóru

Hledat:
Přejít na:  







TOPlist
Český překlad – phpBB.cz
Karma functions powered by Karma MOD © 2007, 2009 m157y
phpBB SEO



..:: Žádný ze zobrazených souborů, které můžete nalézt na tomto fóru, nejsou umístěny na tomto serveru. Autoři stránky nenesou zodpovědnost za příspěvky odeslané užívateli,ani za jejich další akce,které by mohli vést k porušování zákonů. Za své příspěvky zodpovídají uživatelé. Nepoužívejte tyto stránky k distribuci a nebo k downloadu jakýchkoliv materiálů, ke kterým nemáte legální oprávnění a nebo licenci ::..