Vítejte na stránkách . Klikněte zde pro registraci

Uživatelské jméno:   Heslo:   Pamätat si ma  Skrýt můj online stav 
Registrovat    Přihlásit se    Fórum    Hledat    FAQ
Bannery     Kontakt   


Informační Panel

Forum je na prodej,v případě zájmu pište zde contact.php




www.centralwar.eu
www.centralwar.eu

Obsah fóra » Filmy download » HD filmy a jiné » HD filmy cz/sk




Odeslat nové téma Odpovědět na téma  [ Příspěvků: 3 ] 
Autor Zpráva
 Předmět příspěvku: Bohemian Rhapsody / Bohemian Rhapsody (2018)
 Příspěvek Napsal: 03 úno 2019, 18:43 
Offline
Uploader

Registrován: 24 pro 2018, 09:57
ID Užívateľa: 66994

Online: 169d 20h 55m 18s
Poďakoval: 0 x
Obdržal: 9 x


Částka:
16,832.80



Karma: 0


Bohemian Rhapsody / 2018

Pouze Registrovaní uživatelé mohou prohlížet odkazy v tagu code! Registrujte se anebo se Přihlašte na fórum.


Obrázek

Bhmn.Rhpsd.2018.1080p.mkv 11,0Gb

video: 1920 x 808
audio: DTS EN , 5.1 CZ
titulky: CZ , CZ forced


Format : Matroska at 10,9 Mb/s
Length : 10,2 GiB for 2 h 14 min 37 sek. 120 ms
Video #0 : AVC at 8 954 kb/s
Aspect : 1920 x 808 (2.376) at 23.976 fps
Audio #0 : DTS at 1 509 kb/s
Infos : 6 kanálov, 48,0 kHz
Language : en
Audio #1 : AC-3 at 448 kb/s
Infos : 6 kanálov, 48,0 kHz
Language : cs
Text #0 : UTF-8
Language : cs
Text #1 : UTF-8
Language : cs


Pouze Registrovaní uživatelé mohou prohlížet odkazy v tagu code! Registrujte se anebo se Přihlašte na fórum.


Naposledy upravil Stanley dne 03 úno 2019, 21:30, celkově upraveno 1
Oprava názvu tématu


Nahoru 
 Profil  
 
 Předmět příspěvku: Bohemian Rhapsody / Bohemian Rhapsody (2018)
 Příspěvek Napsal: 19 úno 2019, 22:42 
Offline
Registrovaní uživatelé

Registrován: 27 led 2016, 20:28
ID Užívateľa: 65951

Online: 17d 12h 10m 30s
Poďakoval: 0 x
Obdržal: 2 x


Částka:
6,259.15



Karma: 0


Bohemian Rhapsody (2018)

Video/Zdroj: BluRay 1080p
Audio: CZ AC-3 5.1ch, EN DTS 5.1/6.1ch
Titulky: CZ, EN


Obrázek

CSFD / IMDB
Pouze Registrovaní uživatelé mohou prohlížet odkazy v tagu code! Registrujte se anebo se Přihlašte na fórum.


INFO
Citace:
Format : Matroska
Format version : Version 4 / Version 2
File size : 10.2 GiB
Duration : 2h 14mn
Overall bit rate : 10.9 Mbps

Video
Format : AVC
Format profile : High@L4.1
Duration : 2h 14mn
Bit rate : 8 954 Kbps
Width : 1 920 pixels
Height : 808 pixels
Display aspect ratio : 2.40:1
Frame rate mode : Constant
Frame rate : 23.976 (24000/1001) fps
Color space : YUV
Chroma subsampling : 4:2:0
Bit depth : 8 bits
Scan type : Progressive
Bits/(Pixel*Frame) : 0.241
Stream size : 8.40 GiB (82%)

Audio #1
Format : DTS
Format profile : ES Matrix / Core
Duration : 2h 14mn
Bit rate mode : Constant
Bit rate : 1 509 Kbps
Channel(s) : 7 channels / 6 channels
Channel positions : Front: L C R, Side: L R, Back: C, LFE / Front: L C R, Side: L R, LFE
Sampling rate : 48.0 KHz
Frame rate : 93.750 fps (512 spf)
Bit depth : 24 bits
Compression mode : Lossy
Stream size : 1.42 GiB (14%)
Language : English
Default : No
Forced : No

Audio #2
Format : AC-3
Duration : 2h 14mn
Bit rate mode : Constant
Bit rate : 448 Kbps
Channel(s) : 6 channels
Channel positions : Front: L C R, Side: L R, LFE
Sampling rate : 48.0 KHz
Frame rate : 31.250 fps (1536 spf)
Compression mode : Lossy
Stream size : 431 MiB (4%)
Language : Czech
Default : Yes
Forced : No

Text #1
Format : UTF-8
Language : Czech
Default : Yes
Forced : No

Text #2
Format : UTF-8
Language : Czech
Default : No
Forced : No


FASTSHARE

Pouze Registrovaní uživatelé mohou prohlížet odkazy v tagu code! Registrujte se anebo se Přihlašte na fórum.


Pouze Registrovaní uživatelé mohou prohlížet odkazy v tagu code! Registrujte se anebo se Přihlašte na fórum.


Bez hesla. Balené bez kompresie. Pridaný záznam pre opravu dát 5%.


Naposledy upravil Sonty1 dne 16 úno 2020, 13:42, celkově upraveno 1

Nahoru 
 Profil  
 
 Předmět příspěvku: Bohemian Rhapsody / Bohemian Rhapsody (2018)
 Příspěvek Napsal: 03 čer 2021, 17:33 
Offline
Registrovaní uživatelé

Registrován: 04 zář 2007, 13:04
ID Užívateľa: 818

Online: 10d 44m 3s
Poďakoval: 0 x
Obdržal: 0 x


Částka:
31,588.25



Karma: 0


Bohemian Rhapsody (2018)

Pouze Registrovaní uživatelé mohou prohlížet odkazy v tagu code! Registrujte se anebo se Přihlašte na fórum.


Obrázek
Obrázek
Obrázek

Pouze Registrovaní uživatelé mohou prohlížet odkazy v tagu code! Registrujte se anebo se Přihlašte na fórum.

_________________
ObrázekBTC, LTC, ETH
1LWRgkaTCsxigEfy9cKc5XGmWntiiGXEbh


Nahoru 
 Profil  
 
Zobrazit příspěvky za předchozí:  Seřadit podle  
 
Odeslat nové téma Odpovědět na téma  [ Příspěvků: 3 ] 

Obsah fóra » Filmy download » HD filmy a jiné » HD filmy cz/sk


 
Nemůžete zakládat nová témata v tomto fóru
Nemůžete odpovídat v tomto fóru
Nemůžete upravovat své příspěvky v tomto fóru
Nemůžete mazat své příspěvky v tomto fóru
Nemůžete přikládat soubory v tomto fóru

Hledat:
Přejít na:  







TOPlist
Český překlad – phpBB.cz
Karma functions powered by Karma MOD © 2007, 2009 m157y
phpBB SEO



..:: Žádný ze zobrazených souborů, které můžete nalézt na tomto fóru, nejsou umístěny na tomto serveru. Autoři stránky nenesou zodpovědnost za příspěvky odeslané užívateli,ani za jejich další akce,které by mohli vést k porušování zákonů. Za své příspěvky zodpovídají uživatelé. Nepoužívejte tyto stránky k distribuci a nebo k downloadu jakýchkoliv materiálů, ke kterým nemáte legální oprávnění a nebo licenci ::..