Vítejte na stránkách . Klikněte zde pro registraci

Uživatelské jméno:   Heslo:   Pamätat si ma  Skrýt můj online stav 
Registrovat    Přihlásit se    Fórum    Hledat    FAQ
Bannery     Kontakt   


Informační Panel

Screeny,které budou nad klasickou velikost,půjdou do koše!!! gb




www.centralwar.eu
www.centralwar.eu

Obsah fóra » Filmy download » HD filmy a jiné » HD filmy cz/sk




Odeslat nové téma Odpovědět na téma  [ Příspěvků: 2 ] 
Autor Zpráva
 Předmět příspěvku: X-Men: Dark Phoenix / Dark Phoenix (2019)
 Příspěvek Napsal: 09 zář 2019, 14:47 
Offline
Registrovaní uživatelé

Registrován: 24 pro 2018, 09:57
ID Užívateľa: 66994

Online: 96d 17h 6m 18s
Poďakoval: 0 x
Obdržal: 2 x


Částka:
8,468.10



Karma: 0


X-Men: Dark Phoenix / 2019

Pouze Registrovaní uživatelé mohou prohlížet odkazy v tagu code! Registrujte se anebo se Přihlašte na fórum.


Obrázek

X-Mn.Drk.Phnx.2019.1080p.mkv 12,5Gb

video: 1920 x 808
audio: 5.1 CZ , 7.1 EN
titulky: CZ , EN


Format : Matroska at 15,0 Mb/s
Length : 11,9 GiB for 1 h 53 min 56 sek. 416 ms
Video #0 : AVC at 9 479 kb/s
Aspect : 1920 x 808 (2.376) at 23.976 fps
Audio #0 : AC-3 at 448 kb/s
Infos : 6 kanálov, 48,0 kHz
Language : cs
Audio #1 : DTS at 5 074 kb/s
Infos : 8 kanálov, 48,0 kHz
Language : en
Text #0 : UTF-8
Language : cs
Text #1 : UTF-8
Language : en


Pouze Registrovaní uživatelé mohou prohlížet odkazy v tagu code! Registrujte se anebo se Přihlašte na fórum.


Nahoru 
 Profil  
 
 Předmět příspěvku: X-Men: Dark Phoenix / Dark Phoenix (2019)
 Příspěvek Napsal: 19 zář 2019, 22:08 
Offline
Registrovaní uživatelé

Registrován: 27 led 2016, 20:28
ID Užívateľa: 65951

Online: 12d 9h 32m 6s
Poďakoval: 0 x
Obdržal: 1 x


Částka:
4,391.00



Karma: 0


X-Men: Dark Phoenix / Dark Phoenix (2019)

Obrázek

CSFD / IMDB
Pouze Registrovaní uživatelé mohou prohlížet odkazy v tagu code! Registrujte se anebo se Přihlašte na fórum.


Video/Zdroj: BluRay 1080p
Audio: CZ AC-3 5.1ch, EN E-AC-3 7.1/5.1ch, EN AC-3 2ch Commentary by procuder Huch Parker and writer,director Simon Kinberg
Titulky: CZ, CZ forced


INFO
Citace:
Format : Matroska
Format version : Version 2
File size : 13.3 GiB
Duration : 1h 53mn
Overall bit rate : 16.7 Mbps

Video
Format : AVC
Format profile : High@L4.1
Duration : 1h 53mn
Bit rate : 14.5 Mbps
Width : 1 920 pixels
Height : 804 pixels
Display aspect ratio : 2.40:1
Frame rate mode : Constant
Frame rate : 23.976 (24000/1001) fps
Color space : YUV
Chroma subsampling : 4:2:0
Bit depth : 8 bits
Scan type : Progressive
Bits/(Pixel*Frame) : 0.392
Stream size : 11.5 GiB (87%)

Audio #1
Format : AC-3
Duration : 1h 53mn
Bit rate mode : Constant
Bit rate : 448 Kbps
Channel(s) : 6 channels
Channel positions : Front: L C R, Side: L R, LFE
Sampling rate : 48.0 KHz
Frame rate : 31.250 fps (1536 spf)
Compression mode : Lossy
Stream size : 365 MiB (3%)
Language : Czech
Default : No
Forced : No

Audio #2
Format : E-AC-3
Duration : 1h 53mn
Bit rate mode : Constant
Bit rate : 500 bps
Channel(s) : 8 channels
Channel(s)_Original : 6 channels
Channel positions : Front: L C R, Side: L R, LFE
Sampling rate : 48.0 KHz
Frame rate : 187.500 fps (256 spf)
Compression mode : Lossy
Stream size : 1.22 GiB (9%)
Language : English
Default : Yes
Forced : No

Audio #3
Format : AC-3
Duration : 1h 53mn
Bit rate mode : Constant
Bit rate : 224 Kbps
Channel(s) : 2 channels
Channel positions : Front: L R
Sampling rate : 48.0 KHz
Frame rate : 31.250 fps (1536 spf)
Compression mode : Lossy
Stream size : 183 MiB (1%)
Title : 'Commentary by procuder Huch Parker and writer,director Simon Kinberg
Language : English
Default : No
Forced : No

Text #1
Format : UTF-8
Language : Czech
Default : Yes
Forced : Yes

Text #2
Format : UTF-8
Language : Czech
Default : No
Forced : No


FASTSHARE
Pouze Registrovaní uživatelé mohou prohlížet odkazy v tagu code! Registrujte se anebo se Přihlašte na fórum.


Pouze Registrovaní uživatelé mohou prohlížet odkazy v tagu code! Registrujte se anebo se Přihlašte na fórum.


Balené bez kompresie. Bez hesla. Pridaný záznam pre opravu dát 5%.
-------------------------------------------------------------------------------------------------------------------------------------------------------------------

Video/Zdroj: BluRay 2160p
Audio: CZ AC-3 5.1ch, CZ AC-3 2ch, EN TrueHD+Atmos 7.1ch, EN AC-3 5.1ch
Titulky: CZ, EN


INFO
Citace:
Format : Matroska
Format version : Version 4 / Version 2
File size : 41.7 GiB
Duration : 1h 46mn
Overall bit rate mode : Variable
Overall bit rate : 56.0 Mbps

Video
Format : HEVC
Format profile : Main 10@L5.1@High
Duration : 1h 46mn
Bit rate : 49.7 Mbps
Width : 3 840 pixels
Height : 2 160 pixels
Display aspect ratio : 16:9
Frame rate mode : Constant
Frame rate : 23.976 (24000/1001) fps
Color space : YUV
Chroma subsampling : 4:2:0 (Type 2)
Bit depth : 10 bits
Bits/(Pixel*Frame) : 0.250
Stream size : 37.1 GiB (89%)

Audio #1
Format : AC-3
Duration : 1h 46mn
Bit rate mode : Constant
Bit rate : 448 Kbps
Channel(s) : 6 channels
Channel positions : Front: L C R, Side: L R, LFE
Sampling rate : 48.0 KHz
Frame rate : 31.250 fps (1536 spf)
Compression mode : Lossy
Stream size : 342 MiB (1%)
Language : Czech
Default : Yes
Forced : No

Audio #2
Format : AC-3
Duration : 1h 46mn
Bit rate mode : Constant
Bit rate : 256 Kbps
Channel(s) : 2 channels
Channel positions : Front: L R
Sampling rate : 48.0 KHz
Frame rate : 31.250 fps (1536 spf)
Compression mode : Lossy
Delay relative to video : -1ms
Stream size : 195 MiB (0%)
Language : Czech
Default : No
Forced : No

Audio #3
Format : Atmos / TrueHD
Duration : 1h 46mn
Bit rate mode : Variable
Bit rate : 4 820 Kbps
Maximum bit rate : 8 844 Kbps
Channel(s) : Object Based / 8 channels
Channel positions : Object Based / Front: L C R, Side: L R, Back: L R, LFE
Sampling rate : / 48.0 KHz
Frame rate : 1 200.000 fps (40 spf)
Compression mode : Lossless
Delay relative to video : -1ms
Stream size : 3.59 GiB (9%)
Language : English
Default : No
Forced : No

Audio #4
Format : AC-3
Duration : 1h 46mn
Bit rate mode : Constant
Bit rate : 640 Kbps
Channel(s) : 6 channels
Channel positions : Front: L C R, Side: L R, LFE
Sampling rate : 48.0 KHz
Frame rate : 31.250 fps (1536 spf)
Compression mode : Lossy
Delay relative to video : -1ms
Stream size : 488 MiB (1%)
Language : English
Default : No
Forced : No

Text #1
Format : PGS
Language : Czech
Default : Yes
Forced : No

Text #2
Format : PGS
Language : English
Default : No
Forced : No


FASTSHARE
Pouze Registrovaní uživatelé mohou prohlížet odkazy v tagu code! Registrujte se anebo se Přihlašte na fórum.


Balené bez kompresie. Bez hesla. Pridaný záznam pre opravu dát 5%.


Nahoru 
 Profil  
 
Zobrazit příspěvky za předchozí:  Seřadit podle  
 
Odeslat nové téma Odpovědět na téma  [ Příspěvků: 2 ] 

Obsah fóra » Filmy download » HD filmy a jiné » HD filmy cz/sk


 
Nemůžete zakládat nová témata v tomto fóru
Nemůžete odpovídat v tomto fóru
Nemůžete upravovat své příspěvky v tomto fóru
Nemůžete mazat své příspěvky v tomto fóru
Nemůžete přikládat soubory v tomto fóru

Hledat:
Přejít na:  







cron
TOPlist
Český překlad – phpBB.cz
Karma functions powered by Karma MOD © 2007, 2009 m157y
phpBB SEO



..:: Žádný ze zobrazených souborů, které můžete nalézt na tomto fóru, nejsou umístěny na tomto serveru. Autoři stránky nenesou zodpovědnost za příspěvky odeslané užívateli,ani za jejich další akce,které by mohli vést k porušování zákonů. Za své příspěvky zodpovídají uživatelé. Nepoužívejte tyto stránky k distribuci a nebo k downloadu jakýchkoliv materiálů, ke kterým nemáte legální oprávnění a nebo licenci ::..