Vítejte na stránkách . Klikněte zde pro registraci

Uživatelské jméno:   Heslo:   Pamätat si ma  Skrýt můj online stav 
Registrovat    Přihlásit se    Fórum    Hledat    FAQ
Bannery     Kontakt   


Informační Panel






www.centralwar.eu
www.centralwar.eu

Obsah fóra » Filmy download » HD filmy a jiné » HD filmy cz/sk




Odeslat nové téma Odpovědět na téma  [ Příspěvků: 2 ] 
Autor Zpráva
 Předmět příspěvku: Spider-Man: Ďaleko od domova / Spider-Man: Far from Home (20
 Příspěvek Napsal: 22 zář 2019, 16:13 
Offline
Uploader

Registrován: 24 pro 2018, 09:57
ID Užívateľa: 66994

Online: 169d 20h 55m 18s
Poďakoval: 0 x
Obdržal: 7 x


Částka:
17,333.10



Karma: 0


Spider-Man: Ďaleko od domova / Spider-Man: Far from Home / 2019

Pouze Registrovaní uživatelé mohou prohlížet odkazy v tagu code! Registrujte se anebo se Přihlašte na fórum.


Obrázek

Spdr.Mn.Dlk.od.dmv.2019.1080p.CZ.SK.mkv 12,1Gb

video: 1920 x 808
audio: 5.1 CZ , 5.1 SK , DTS EN
titulky: EN , CZ


Format : Matroska at 12,9 Mb/s
Length : 11,6 GiB for 2 h 9 min 23 sek. 766 ms
Video #0 : AVC at 9 376 kb/s
Aspect : 1920 x 808 (2.376) at 23.976 fps
Audio #0 : AC-3 at 448 kb/s
Infos : 6 kanálov, 48,0 kHz
Language : cs
Audio #1 : AC-3 at 448 kb/s
Infos : 6 kanálov, 48,0 kHz
Language : sk
Audio #2 : DTS at 2 594 kb/s
Infos : 8 kanálov, 48,0 kHz
Language : en
Text #0 : UTF-8
Language : cs
Text #1 : UTF-8
Language : en


Pouze Registrovaní uživatelé mohou prohlížet odkazy v tagu code! Registrujte se anebo se Přihlašte na fórum.


Nahoru 
 Profil  
 
 Předmět příspěvku: Spider-Man: Ďaleko od domova / Spider-Man: Far from Home (20
 Příspěvek Napsal: 28 pro 2019, 00:46 
Offline
Registrovaní uživatelé

Registrován: 27 led 2016, 20:28
ID Užívateľa: 65951

Online: 14d 39m 25s
Poďakoval: 0 x
Obdržal: 1 x


Částka:
5,239.50



Karma: 0


Spider-Man: Daleko od domova / Spider-Man: Far from Home (2019)

Obrázek

CSFD / IMDB
Pouze Registrovaní uživatelé mohou prohlížet odkazy v tagu code! Registrujte se anebo se Přihlašte na fórum.


Video/Zdroj: BluRay 1080p
Audio: CZ AC-3 5.1ch, SK AC-3 5.1ch, EN DTS 5.1ch
Subtitles: CZ, SK, EN


INFO
Citace:
Format : Matroska
Format version : Version 4
File size : 16.1 GiB
Duration : 2 h 9 min
Overall bit rate : 17.8 Mb/s

Video
Format : AVC
Format profile : High@L4.1
Duration : 2 h 9 min
Bit rate : 15.0 Mb/s
Width : 1 920 pixels
Height : 804 pixels
Display aspect ratio : 2.40:1
Frame rate mode : Constant
Frame rate : 23.976 (24000/1001) FPS
Color space : YUV
Chroma subsampling : 4:2:0
Bit depth : 8 bits
Scan type : Progressive
Bits/(Pixel*Frame) : 0.405
Stream size : 13.6 GiB (84%)

Audio #1
Format : AC-3
Commercial name : Dolby Digital
Duration : 2 h 9 min
Bit rate mode : Constant
Bit rate : 640 kb/s
Channel(s) : 6 channels
Channel layout : L R C LFE Ls Rs
Sampling rate : 48.0 kHz
Frame rate : 31.250 FPS (1536 SPF)
Compression mode : Lossy
Delay relative to video : 32 ms
Stream size : 592 MiB (4%)
Language : Czech
Default : Yes
Forced : No

Audio #2
Format : AC-3
Commercial name : Dolby Digital
Duration : 2 h 9 min
Bit rate mode : Constant
Bit rate : 640 kb/s
Channel(s) : 6 channels
Channel layout : L R C LFE Ls Rs
Sampling rate : 48.0 kHz
Frame rate : 31.250 FPS (1536 SPF)
Compression mode : Lossy
Delay relative to video : 32 ms
Stream size : 592 MiB (4%)
Language : Slovak
Default : No
Forced : No

Audio #3
Format : DTS
Format/Info : Digital Theater Systems
Duration : 2 h 9 min
Bit rate mode : Constant
Bit rate : 1 509 kb/s
Channel(s) : 6 channels
Channel layout : C L R Ls Rs LFE
Sampling rate : 48.0 kHz
Frame rate : 93.750 FPS (512 SPF)
Bit depth : 16 bits
Compression mode : Lossy
Stream size : 1.36 GiB (8%)
Language : English
Default : No
Forced : No

Text #1
Format : PGS
Language : Czech
Default : Yes
Forced : No

Text #2
Format : PGS
Language : Slovak
Default : No
Forced : No

Text #3
Format : PGS
Language : English
Default : No
Forced : No


FASTSHARE

Pouze Registrovaní uživatelé mohou prohlížet odkazy v tagu code! Registrujte se anebo se Přihlašte na fórum.


Pouze Registrovaní uživatelé mohou prohlížet odkazy v tagu code! Registrujte se anebo se Přihlašte na fórum.


Balené bez kompresie. Bez hesla. Pridaný záznam pre opravu dát 5%.

-----------------------------------------------------------------------------------------------------------------------------------------------------------------------

Video/Zdroj: BluRay 2160p HEVC HDR
Audio: CZ AC-3 5.1ch, SK AC-3 5.1ch, EN AC-3 5.1ch, EN MLP FBA Dolby TrueHD + Amos 7.1ch
Subtitles: CZ, SK, EN, FR, ES


INFO
Citace:
Format : Matroska
Format version : Version 4
File size : 53.2 GiB
Duration : 2 h 9 min
Overall bit rate mode : Variable
Overall bit rate : 58.8 Mb/s

Video
Format : HEVC
Format profile : Main 10@L5.1@High
HDR format : SMPTE ST 2086, HDR10 compatible
Duration : 2 h 9 min
Bit rate : 53.7 Mb/s
Width : 3 840 pixels
Height : 2 160 pixels
Display aspect ratio : 16:9
Frame rate mode : Constant
Frame rate : 23.976 (24000/1001) FPS
Color space : YUV
Chroma subsampling : 4:2:0 (Type 2)
Bit depth : 10 bits
Bits/(Pixel*Frame) : 0.270
Stream size : 48.5 GiB (91%)

Audio #1
Format : AC-3
Commercial name : Dolby Digital
Duration : 2 h 9 min
Bit rate mode : Constant
Bit rate : 640 kb/s
Channel(s) : 6 channels
Channel layout : L R C LFE Ls Rs
Sampling rate : 48.0 kHz
Frame rate : 31.250 FPS (1536 SPF)
Compression mode : Lossy
Delay relative to video : -8 ms
Stream size : 592 MiB (1%)
Language : Czech
Default : Yes
Forced : No

Audio #2
Format : AC-3
Commercial name : Dolby Digital
Duration : 2 h 9 min
Bit rate mode : Constant
Bit rate : 640 kb/s
Channel(s) : 6 channels
Channel layout : L R C LFE Ls Rs
Sampling rate : 48.0 kHz
Frame rate : 31.250 FPS (1536 SPF)
Compression mode : Lossy
Delay relative to video : -8 ms
Stream size : 592 MiB (1%)
Language : Slovak
Default : No
Forced : No

Audio #3
Format : MLP FBA 16-ch
Format/Info : Meridian Lossless Packing FBA with 16-channel presentation
Commercial name : Dolby TrueHD with Dolby Atmos
Duration : 2 h 9 min
Bit rate mode : Variable
Bit rate : 3 077 kb/s
Maximum bit rate : 5 397 kb/s
Channel(s) : 8 channels
Channel layout : L R C LFE Ls Rs Lb Rb
Sampling rate : 48.0 kHz
Frame rate : 1 200.000 FPS (40 SPF)
Compression mode : Lossless
Stream size : 2.78 GiB (5%)
Language : English
Default : No
Forced : No

Audio #4
Format : AC-3
Commercial name : Dolby Digital
Duration : 2 h 9 min
Bit rate mode : Constant
Bit rate : 640 kb/s
Channel(s) : 6 channels
Channel layout : L R C LFE Ls Rs
Sampling rate : 48.0 kHz
Frame rate : 31.250 FPS (1536 SPF)
Compression mode : Lossy
Delay relative to video : -8 ms
Stream size : 592 MiB (1%)
Language : English
Default : No
Forced : No

Text #1
Format : PGS
Language : Czech
Default : No
Forced : No

Text #2
Format : UTF-8
Language : Czech
Default : No
Forced : No

Text #3
Format : PGS
Language : Slovak
Default : No
Forced : No

Text #4
Format : PGS
Language : English
Default : No
Forced : No

Text #5
Format : UTF-8
Language : English
Default : No
Forced : No

Text #6
Format : PGS
Language : French
Default : No
Forced : No

Text #7
Format : PGS
Language : Spanish
Default : No
Forced : No


FASTSHARE

Pouze Registrovaní uživatelé mohou prohlížet odkazy v tagu code! Registrujte se anebo se Přihlašte na fórum.


Balené bez kompresie. Bez hesla. Pridaný záznam pre opravu dát 5%.


Naposledy upravil Sonty1 dne 16 říj 2020, 17:21, celkově upraveno 2

Nahoru 
 Profil  
 
Zobrazit příspěvky za předchozí:  Seřadit podle  
 
Odeslat nové téma Odpovědět na téma  [ Příspěvků: 2 ] 

Obsah fóra » Filmy download » HD filmy a jiné » HD filmy cz/sk


 
Nemůžete zakládat nová témata v tomto fóru
Nemůžete odpovídat v tomto fóru
Nemůžete upravovat své příspěvky v tomto fóru
Nemůžete mazat své příspěvky v tomto fóru
Nemůžete přikládat soubory v tomto fóru

Hledat:
Přejít na:  







cron
TOPlist
Český překlad – phpBB.cz
Karma functions powered by Karma MOD © 2007, 2009 m157y
phpBB SEO



..:: Žádný ze zobrazených souborů, které můžete nalézt na tomto fóru, nejsou umístěny na tomto serveru. Autoři stránky nenesou zodpovědnost za příspěvky odeslané užívateli,ani za jejich další akce,které by mohli vést k porušování zákonů. Za své příspěvky zodpovídají uživatelé. Nepoužívejte tyto stránky k distribuci a nebo k downloadu jakýchkoliv materiálů, ke kterým nemáte legální oprávnění a nebo licenci ::..