Vítejte na stránkách . Klikněte zde pro registraci

Uživatelské jméno:   Heslo:   Pamätat si ma  Skrýt můj online stav 
Registrovat    Přihlásit se    Fórum    Hledat    FAQ
Bannery     Kontakt   


Informační Panel






www.centralwar.eu
www.centralwar.eu

Obsah fóra » Filmy download » HD filmy a jiné » HD filmy cz/sk




Odeslat nové téma Odpovědět na téma  [ Příspěvků: 2 ] 
Autor Zpráva
 Předmět příspěvku: John Wick 3 / John Wick: Chapter 3 - Parabellum (2019)
 Příspěvek Napsal: 18 říj 2019, 11:49 
Offline
Registrovaní uživatelé

Registrován: 27 led 2016, 19:28
ID Užívateľa: 65951

Online: 14d 5h 17m 28s
Poďakoval: 0 x
Obdržal: 1 x


Částka:
5,239.60



Karma: 0


John Wick 3 / John Wick: Chapter 3 - Parabellum (2019)

Obrázek

CSFD / IMDB
Pouze Registrovaní uživatelé mohou prohlížet odkazy v tagu code! Registrujte se anebo se Přihlašte na fórum.


Video/Zdroj: BluRay 1080p
Audio: CZ E-AC-3 5.1ch, EN E-AC-3 7.1/5.1ch
Titulky: CZ, CZ forced


INFO
Citace:
Format : Matroska
Format version : Version 2
File size : 17.5 GiB
Duration : 2h 10mn
Overall bit rate : 19.2 Mbps

Video
Format : AVC
Format profile : High@L4.1
Duration : 2h 10mn
Bit rate : 16.6 Mbps
Width : 1 920 pixels
Height : 800 pixels
Display aspect ratio : 2.40:1
Frame rate mode : Constant
Frame rate : 23.976 (24000/1001) fps
Color space : YUV
Chroma subsampling : 4:2:0
Bit depth : 8 bits
Scan type : Progressive
Bits/(Pixel*Frame) : 0.452
Stream size : 15.2 GiB (87%)

Audio #1
Format : E-AC-3
Duration : 2h 10mn
Bit rate mode : Constant
Bit rate : 1 024 Kbps
Channel(s) : 6 channels
Channel positions : Front: L C R, Side: L R, LFE
Sampling rate : 48.0 KHz
Frame rate : 187.500 fps (256 spf)
Compression mode : Lossy
Stream size : 959 MiB (5%)
Language : Czech
Default : No
Forced : No

Audio #2
Format : E-AC-3
Duration : 2h 10mn
Bit rate mode : Constant
Bit rate : 500 bps
Channel(s) : 8 channels
Channel(s)_Original : 6 channels
Channel positions : Front: L C R, Side: L R, LFE
Sampling rate : 48.0 KHz
Frame rate : 187.500 fps (256 spf)
Compression mode : Lossy
Stream size : 1.40 GiB (8%)
Language : English
Default : Yes
Forced : No

Text #1
Format : UTF-8
Language : Czech
Default : Yes
Forced : Yes

Text #2
Format : UTF-8
Language : Czech
Default : No
Forced : No


FASTSHARE
Pouze Registrovaní uživatelé mohou prohlížet odkazy v tagu code! Registrujte se anebo se Přihlašte na fórum.


Pouze Registrovaní uživatelé mohou prohlížet odkazy v tagu code! Registrujte se anebo se Přihlašte na fórum.


Balené bez kompresie. Bez hesla. Pridaný záznam pre opravu dát 5%.

--------------------------------------------------------------------------------------------------------------------------------------------------------

Video/Zdroj: BluRay 2160p
Audio: CZ DTS 5.1ch, EN TrueHD+Atmos 7.1ch, EN DTS 7.1/5.1ch, EN E-AC-3 5.1ch, EN AC-3 5.1ch
Titulky: CZ, CZ forced, SK, EN


INFO
Citace:
Format : Matroska
Format version : Version 4 / Version 2
File size : 68.9 GiB
Duration : 2h 10mn
Overall bit rate mode : Variable
Overall bit rate : 75.3 Mbps

Video
Format : HEVC
Format profile : Main 10@L5.1@High
Duration : 2h 10mn
Bit rate : 63.2 Mbps
Width : 3 840 pixels
Height : 2 160 pixels
Display aspect ratio : 16:9
Frame rate mode : Constant
Frame rate : 23.976 (24000/1001) fps
Color space : YUV
Chroma subsampling : 4:2:0 (Type 2)
Bit depth : 10 bits
Bits/(Pixel*Frame) : 0.318
Stream size : 57.7 GiB (84%)

Audio #1
Format : DTS
Duration : 2h 10mn
Bit rate mode : Constant
Bit rate : 1 509 Kbps
Channel(s) : 6 channels
Channel positions : Front: L C R, Side: L R, LFE
Sampling rate : 48.0 KHz
Frame rate : 93.750 fps (512 spf)
Bit depth : 24 bits
Compression mode : Lossy
Delay relative to video : -9ms
Stream size : 1.38 GiB (2%)
Language : Czech
Default : Yes
Forced : No

Audio #2
Format : Atmos / TrueHD
Duration : 2h 10mn
Bit rate mode : Variable
Bit rate : 4 012 Kbps
Maximum bit rate : 6 327 Kbps
Channel(s) : Object Based / 8 channels
Channel positions : Object Based / Front: L C R, Side: L R, Back: L R, LFE
Sampling rate : / 48.0 KHz
Frame rate : 1 200.000 fps (40 spf)
Compression mode : Lossless
Stream size : 3.66 GiB (5%)
Language : English
Default : No
Forced : No

Audio #3
Format : DTS
Duration : 2h 10mn
Bit rate mode : Variable / Constant
Bit rate : 4 439 Kbps / 1 509 Kbps
Channel(s) : 8 channels / 6 channels
Channel positions : Front: L C R, Side: L R, Back: L R, LFE / Front: L C R, Side: L R, LFE
Sampling rate : 48.0 KHz
Frame rate : 93.750 fps (512 spf)
Bit depth : 24 bits
Compression mode : Lossless / Lossy
Delay relative to video : -9ms
Stream size : 4.05 GiB (6%)
Language : English
Default : No
Forced : No

Audio #4
Format : E-AC-3
Duration : 2h 10mn
Bit rate mode : Constant
Bit rate : 1 536 Kbps
Channel(s) : 6 channels
Channel positions : Front: L C R, Side: L R, LFE
Sampling rate : 48.0 KHz
Frame rate : 187.500 fps (256 spf)
Compression mode : Lossy
Delay relative to video : -9ms
Stream size : 1.40 GiB (2%)
Language : English
Default : No
Forced : No

Audio #5
Format : AC-3
Duration : 2h 10mn
Bit rate mode : Constant
Bit rate : 640 Kbps
Channel(s) : 6 channels
Channel positions : Front: L C R, Side: L R, LFE
Sampling rate : 48.0 KHz
Frame rate : 31.250 fps (1536 spf)
Compression mode : Lossy
Delay relative to video : -9ms
Stream size : 599 MiB (1%)
Language : English
Default : No
Forced : No

Text #1
Format : UTF-8
Language : Czech
Default : Yes
Forced : Yes

Text #2
Format : UTF-8
Language : Czech
Default : No
Forced : No

Text #3
Format : UTF-8
Language : Slovak
Default : No
Forced : No

Text #4
Format : PGS
Language : English
Default : No
Forced : No

Text #5
Format : UTF-8
Language : English
Default : No
Forced : No


FASTSHARE
Pouze Registrovaní uživatelé mohou prohlížet odkazy v tagu code! Registrujte se anebo se Přihlašte na fórum.


Balené bez kompresie. Bez hesla. Pridaný záznam pre opravu dát 5%.


Naposledy upravil Sonty1 dne 22 bře 2020, 21:50, celkově upraveno 4

Nahoru 
 Profil  
 
 Předmět příspěvku: John Wick 3 / John Wick: Chapter 3 - Parabellum (2019)
 Příspěvek Napsal: 02 úno 2020, 21:05 
Offline
Registrovaní uživatelé

Registrován: 04 zář 2007, 12:04
ID Užívateľa: 818

Online: 3d 30m 16s
Poďakoval: 0 x
Obdržal: 0 x


Částka:
10,751.35



Karma: 0


John Wick 3 / John Wick: Chapter 3 - Parabellum (2019)

Pouze Registrovaní uživatelé mohou prohlížet odkazy v tagu code! Registrujte se anebo se Přihlašte na fórum.


Obrázek
Obrázek
Obrázek

Pouze Registrovaní uživatelé mohou prohlížet odkazy v tagu code! Registrujte se anebo se Přihlašte na fórum.


4K UHD

Obrázek
Obrázek

Pouze Registrovaní uživatelé mohou prohlížet odkazy v tagu code! Registrujte se anebo se Přihlašte na fórum.

_________________
ObrázekBTC, LTC, ETH
1LWRgkaTCsxigEfy9cKc5XGmWntiiGXEbh


Naposledy upravil pegasss dne 02 úno 2020, 21:06, celkově upraveno 1

Nahoru 
 Profil  
 
Zobrazit příspěvky za předchozí:  Seřadit podle  
 
Odeslat nové téma Odpovědět na téma  [ Příspěvků: 2 ] 

Obsah fóra » Filmy download » HD filmy a jiné » HD filmy cz/sk


 
Nemůžete zakládat nová témata v tomto fóru
Nemůžete odpovídat v tomto fóru
Nemůžete upravovat své příspěvky v tomto fóru
Nemůžete mazat své příspěvky v tomto fóru
Nemůžete přikládat soubory v tomto fóru

Hledat:
Přejít na:  







cron
TOPlist
Český překlad – phpBB.cz
Karma functions powered by Karma MOD © 2007, 2009 m157y
phpBB SEO



..:: Žádný ze zobrazených souborů, které můžete nalézt na tomto fóru, nejsou umístěny na tomto serveru. Autoři stránky nenesou zodpovědnost za příspěvky odeslané užívateli,ani za jejich další akce,které by mohli vést k porušování zákonů. Za své příspěvky zodpovídají uživatelé. Nepoužívejte tyto stránky k distribuci a nebo k downloadu jakýchkoliv materiálů, ke kterým nemáte legální oprávnění a nebo licenci ::..