Vítejte na stránkách . Klikněte zde pro registraci

Uživatelské jméno:   Heslo:   Pamätat si ma  Skrýt můj online stav 
Registrovat    Přihlásit se    Fórum    Hledat    FAQ
Bannery     Kontakt   


Informační Panel

Forum je na prodej,v případě zájmu pište zde contact.php




www.centralwar.eu
www.centralwar.eu

Obsah fóra » Filmy download » HD filmy a jiné » HD filmy cz/sk




Odeslat nové téma Odpovědět na téma  [ Příspěvků: 2 ] 
Autor Zpráva
 Předmět příspěvku: Shazam! / Shazam! (2019)
 Příspěvek Napsal: 30 zář 2019, 12:15 
Offline
Registrovaní uživatelé

Registrován: 27 led 2016, 20:28
ID Užívateľa: 65951

Online: 16d 16h 57m 23s
Poďakoval: 0 x
Obdržal: 2 x


Částka:
5,979.55



Karma: 0


Shazam! (2019)

Video/Zdroj: BluRay 1080p
Audio: CZ AC-3 5.1ch, EN TrueHD+Atmos 7.1ch, EN AC-3 5.1ch
Subtitles: CZ, EN


Obrázek

CSFD / IMDB
Pouze Registrovaní uživatelé mohou prohlížet odkazy v tagu code! Registrujte se anebo se Přihlašte na fórum.


INFO
Citace:
Format : Matroska
Format version : Version 4 / Version 2
File size : 15.0 GiB
Duration : 2 h 11 min
Overall bit rate mode : Variable
Overall bit rate : 16.3 Mb/s

Video
Format : AVC
Format profile : High@L4.1
Duration : 2 h 11 min
Bit rate : 11.5 Mb/s
Width : 1 920 pixels
Height : 804 pixels
Display aspect ratio : 2.40:1
Frame rate mode : Constant
Frame rate : 23.976 (24000/1001) FPS
Color space : YUV
Chroma subsampling : 4:2:0
Bit depth : 8 bits
Scan type : Progressive
Bits/(Pixel*Frame) : 0.311
Stream size : 10.6 GiB (70%)

Audio #1
Format : TrueHD
Format profile : TrueHD+Atmos / TrueHD
Duration : 2 h 11 min
Bit rate mode : Variable
Bit rate : 3 645 kb/s
Maximum bit rate : 5 931 kb/s
Channel(s) : Object Based / 8 channels
Channel positions : Object Based / Front: L C R, Side: L R, Back: L R, LFE
Sampling rate : / 48.0 kHz
Frame rate : 1 200.000 FPS (40 SPF)
Compression mode : Lossless
Stream size : 3.35 GiB (22%)
Language : English
Default : Yes
Forced : No

Audio #2
Format : AC-3
Duration : 2 h 11 min
Bit rate mode : Constant
Bit rate : 640 kb/s
Channel(s) : 6 channels
Channel positions : Front: L C R, Side: L R, LFE
Sampling rate : 48.0 kHz
Frame rate : 31.250 FPS (1536 SPF)
Bit depth : 16 bits
Compression mode : Lossy
Stream size : 603 MiB (4%)
Language : English
Default : No
Forced : No

Audio #3
Format : AC-3
Duration : 2 h 11 min
Bit rate mode : Constant
Bit rate : 448 kb/s
Channel(s) : 6 channels
Channel positions : Front: L C R, Side: L R, LFE
Sampling rate : 48.0 kHz
Frame rate : 31.250 FPS (1536 SPF)
Bit depth : 16 bits
Compression mode : Lossy
Stream size : 422 MiB (3%)
Language : Czech
Default : No
Forced : No

Text #1
Format : UTF-8
Language : English
Default : Yes
Forced : No

Text #2
Format : UTF-8
Language : English
Default : No
Forced : No

Text #3
Format : PGS
Language : English
Default : No
Forced : No

Text #4
Format : PGS
Language : Czech
Default : No
Forced : No


FASTSHARE

Pouze Registrovaní uživatelé mohou prohlížet odkazy v tagu code! Registrujte se anebo se Přihlašte na fórum.


Pouze Registrovaní uživatelé mohou prohlížet odkazy v tagu code! Registrujte se anebo se Přihlašte na fórum.


Balené bez kompresie. Bez hesla. Pridaný záznam pre opravu dát 5%.


Naposledy upravil Stanley dne 30 zář 2019, 20:24, celkově upraveno 1
Oprava názvu tématu


Nahoru 
 Profil  
 
 Předmět příspěvku: Shazam! / Shazam! (2019)
 Příspěvek Napsal: 05 čer 2021, 10:54 
Offline
Registrovaní uživatelé

Registrován: 04 zář 2007, 13:04
ID Užívateľa: 818

Online: 8d 3h 19m 17s
Poďakoval: 0 x
Obdržal: 0 x


Částka:
26,212.45



Karma: 0


Shazam! (2019)

Pouze Registrovaní uživatelé mohou prohlížet odkazy v tagu code! Registrujte se anebo se Přihlašte na fórum.


Obrázek
Obrázek
Obrázek

Pouze Registrovaní uživatelé mohou prohlížet odkazy v tagu code! Registrujte se anebo se Přihlašte na fórum.

_________________
ObrázekBTC, LTC, ETH
1LWRgkaTCsxigEfy9cKc5XGmWntiiGXEbh


Nahoru 
 Profil  
 
Zobrazit příspěvky za předchozí:  Seřadit podle  
 
Odeslat nové téma Odpovědět na téma  [ Příspěvků: 2 ] 

Obsah fóra » Filmy download » HD filmy a jiné » HD filmy cz/sk


 
Nemůžete zakládat nová témata v tomto fóru
Nemůžete odpovídat v tomto fóru
Nemůžete upravovat své příspěvky v tomto fóru
Nemůžete mazat své příspěvky v tomto fóru
Nemůžete přikládat soubory v tomto fóru

Hledat:
Přejít na:  







TOPlist
Český překlad – phpBB.cz
Karma functions powered by Karma MOD © 2007, 2009 m157y
phpBB SEO



..:: Žádný ze zobrazených souborů, které můžete nalézt na tomto fóru, nejsou umístěny na tomto serveru. Autoři stránky nenesou zodpovědnost za příspěvky odeslané užívateli,ani za jejich další akce,které by mohli vést k porušování zákonů. Za své příspěvky zodpovídají uživatelé. Nepoužívejte tyto stránky k distribuci a nebo k downloadu jakýchkoliv materiálů, ke kterým nemáte legální oprávnění a nebo licenci ::..