Vítejte na stránkách . Klikněte zde pro registraci

Uživatelské jméno:   Heslo:   Pamätat si ma  Skrýt můj online stav 
Registrovat    Přihlásit se    Fórum    Hledat    FAQ
Bannery     Kontakt   


Informační Panel






www.centralwar.eu
www.centralwar.eu

Obsah fóra » Filmy download » HD filmy a jiné » HD filmy cz/sk




Odeslat nové téma Odpovědět na téma  [ Příspěvků: 2 ] 
Autor Zpráva
 Předmět příspěvku: Lví král / The Lion King (2019)
 Příspěvek Napsal: 22 lis 2019, 12:06 
Offline
Uploader

Registrován: 24 pro 2018, 08:57
ID Užívateľa: 66994

Online: 169d 20h 55m 18s
Poďakoval: 0 x
Obdržal: 7 x


Částka:
17,333.10



Karma: 0


Lví král / The Lion King / 2019

Pouze Registrovaní uživatelé mohou prohlížet odkazy v tagu code! Registrujte se anebo se Přihlašte na fórum.


Obrázek

Lv.krl.2019.2160p.EN.CZ.SK.mkv 17,5Gb

H.265 HEVC 2160p

video: 3840 x 2160
audio: 5.1 CZ , 5.1 SK , 7.1 EN , 5.1 EN
titulky: CZ , EN


Format : Matroska at 19,8 Mb/s
Length : 16,4 GiB for 1 h 58 min 15 sek. 200 ms
Video #0 : HEVC at 13,4 Mb/s
Aspect : 3840 x 2160 (1.778) at 23.976 fps
Audio #0 : AC-3 at 384 kb/s
Infos : 6 kanálov, 48,0 kHz
Language : cs
Audio #1 : AC-3 at 384 kb/s
Infos : 6 kanálov, 48,0 kHz
Language : sk
Audio #2 : MLP FBA at 4 929 kb/s
Infos : 8 kanálov, 48,0 kHz
Language : en
Audio #3 : AC-3 at 640 kb/s
Infos : 6 kanálov, 48,0 kHz
Language : en
Text #0 : UTF-8
Language : cs
Text #1 : PGS
Language : en


Pouze Registrovaní uživatelé mohou prohlížet odkazy v tagu code! Registrujte se anebo se Přihlašte na fórum.


Lv.krl.2019.1080p.EN.CZ.SK.mkv 14,1Gb

video: 1920 x 1080
audio: 5.1 CZ , 5.1 SK , DTS EN , 5.1 EN
titulky: CZ


Format : Matroska at 16,3 Mb/s
Length : 13,5 GiB for 1 h 58 min 15 sek. 344 ms
Video #0 : AVC at 10 000 kb/s
Aspect : 1920 x 1080 (1.778) at 23.976 fps
Audio #0 : AC-3 at 384 kb/s
Infos : 6 kanálov, 48,0 kHz
Language : cs
Audio #1 : AC-3 at 384 kb/s
Infos : 6 kanálov, 48,0 kHz
Language : sk
Audio #2 : AC-3 at 640 kb/s
Infos : 6 kanálov, 48,0 kHz
Language : en
Audio #3 : DTS at 5 091 kb/s
Infos : 8 kanálov, 48,0 kHz
Language : en
Text #0 : UTF-8
Language : cs
Text #1 : PGS


Pouze Registrovaní uživatelé mohou prohlížet odkazy v tagu code! Registrujte se anebo se Přihlašte na fórum.


Naposledy upravil Kubko_sk dne 23 lis 2019, 08:58, celkově upraveno 1

Nahoru 
 Profil  
 
 Předmět příspěvku: Lví král / The Lion King (2019)
 Příspěvek Napsal: 04 led 2020, 12:18 
Offline
Registrovaní uživatelé

Registrován: 27 led 2016, 19:28
ID Užívateľa: 65951

Online: 14d 5h 17m 28s
Poďakoval: 0 x
Obdržal: 1 x


Částka:
5,239.60



Karma: 0


Lví král / Lion King, The (2019)

Obrázek

CSFD / IMDB
Pouze Registrovaní uživatelé mohou prohlížet odkazy v tagu code! Registrujte se anebo se Přihlašte na fórum.


Video/Zdroj: BluRay 1080p
Audio: CZ AC-3 5.1ch, SK AC-3 5.1ch, EN AC-3 5.1ch, EN DTS-HD 7.1ch
Titulky: CZ, SK


INFO
Citace:
Format : Matroska
Format version : Version 4
File size : 13.5 GiB
Duration : 1 h 58 min
Overall bit rate mode : Variable
Overall bit rate : 16.3 Mb/s

Video
Format : AVC
Format profile : High@L4
Duration : 1 h 58 min
Bit rate : 10 000 kb/s
Width : 1 920 pixels
Height : 1 080 pixels
Display aspect ratio : 16:9
Frame rate mode : Constant
Frame rate : 23.976 (24000/1001) FPS
Color space : YUV
Chroma subsampling : 4:2:0
Bit depth : 8 bits
Scan type : Progressive
Bits/(Pixel*Frame) : 0.201
Stream size : 8.10 GiB (60%)

Audio #1
Format : AC-3
Commercial name : Dolby Digital
Duration : 1 h 58 min
Bit rate mode : Constant
Bit rate : 384 kb/s
Channel(s) : 6 channels
Channel layout : L R C LFE Ls Rs
Sampling rate : 48.0 kHz
Frame rate : 31.250 FPS (1536 SPF)
Compression mode : Lossy
Delay relative to video : -5 ms
Stream size : 325 MiB (2%)
Language : Czech
Default : No
Forced : No

Audio #2
Format : AC-3
Commercial name : Dolby Digital
Duration : 1 h 58 min
Bit rate mode : Constant
Bit rate : 384 kb/s
Channel(s) : 6 channels
Channel layout : L R C LFE Ls Rs
Sampling rate : 48.0 kHz
Frame rate : 31.250 FPS (1536 SPF)
Compression mode : Lossy
Delay relative to video : -5 ms
Stream size : 325 MiB (2%)
Language : Slovak
Default : No
Forced : No

Audio #3
Format : AC-3
Commercial name : Dolby Digital
Duration : 1 h 58 min
Bit rate mode : Constant
Bit rate : 640 kb/s
Channel(s) : 6 channels
Channel layout : L R C LFE Ls Rs
Sampling rate : 48.0 kHz
Frame rate : 31.250 FPS (1536 SPF)
Compression mode : Lossy
Delay relative to video : -5 ms
Stream size : 541 MiB (4%)
Language : English
Default : Yes
Forced : No

Audio #4
Format : DTS XLL
Format/Info : Digital Theater Systems
Commercial name : DTS-HD Master Audio
Duration : 1 h 58 min
Bit rate mode : Variable
Bit rate : 5 091 kb/s
Channel(s) : 8 channels
Channel layout : C L R LFE Lb Rb Lss Rss
Sampling rate : 48.0 kHz
Frame rate : 93.750 FPS (512 SPF)
Bit depth : 24 bits
Compression mode : Lossless
Delay relative to video : -5 ms
Stream size : 4.21 GiB (31%)
Language : English
Default : No
Forced : No

Text #1
Format : UTF-8
Language : Czech
Default : No
Forced : No

Text #2
Format : PGS
Language : English
Default : Yes
Forced : No


FASTSHARE
Pouze Registrovaní uživatelé mohou prohlížet odkazy v tagu code! Registrujte se anebo se Přihlašte na fórum.


Pouze Registrovaní uživatelé mohou prohlížet odkazy v tagu code! Registrujte se anebo se Přihlašte na fórum.


Balené bez kompresie. Bez hesla. Pridaný záznam pre opravu dát 5%.

--------------------------------------------------------------------------------------------------------------------------------------------------------

Video/Zdroj: BluRay 2160p
Audio: CZ AC-3 5.1ch, SK AC-3 5.1ch, EN AC-3 5.1ch, EN TrueHD+Atmos 7.1ch, EN AC-3 2ch Commentary By Director Jon Favreau
Titulky: CZ, CZ forced


INFO
Citace:
Format : Matroska
Format version : Version 2
File size : 50.5 GiB
Duration : 1 h 58 min
Overall bit rate mode : Variable
Overall bit rate : 61.1 Mb/s

Video
Format : HEVC
Format profile : Main 10@L5.1@High
Duration : 1 h 58 min
Bit rate : 54.3 Mb/s
Width : 3 840 pixels
Height : 2 160 pixels
Display aspect ratio : 16:9
Frame rate mode : Constant
Frame rate : 23.976 (24000/1001) FPS
Color space : YUV
Chroma subsampling : 4:2:0 (Type 2)
Bit depth : 10 bits
Bits/(Pixel*Frame) : 0.273
Stream size : 44.8 GiB (89%)

Audio #1
Format : AC-3
Commercial name : Dolby Digital
Duration : 1 h 58 min
Bit rate mode : Constant
Bit rate : 640 kb/s
Channel(s) : 6 channels
Channel layout : L R C LFE Ls Rs
Sampling rate : 48.0 kHz
Frame rate : 31.250 FPS (1536 SPF)
Compression mode : Lossy
Stream size : 541 MiB (1%)
Language : Czech
Default : Yes
Forced : No

Audio #2
Format : AC-3
Commercial name : Dolby Digital
Duration : 1 h 58 min
Bit rate mode : Constant
Bit rate : 384 kb/s
Channel(s) : 6 channels
Channel layout : L R C LFE Ls Rs
Sampling rate : 48.0 kHz
Frame rate : 31.250 FPS (1536 SPF)
Compression mode : Lossy
Stream size : 325 MiB (1%)
Language : Slovak
Default : No
Forced : No

Audio #3
Format : MLP FBA 16-ch
Format/Info : Meridian Lossless Packing FBA with 16-channel presentation
Commercial name : Dolby TrueHD with Dolby Atmos
Duration : 1 h 58 min
Bit rate mode : Variable
Bit rate : 4 929 kb/s
Maximum bit rate : 7 332 kb/s
Channel(s) : 8 channels
Channel layout : L R C LFE Ls Rs Lb Rb
Sampling rate : 48.0 kHz
Frame rate : 1 200.000 FPS (40 SPF)
Compression mode : Lossless
Stream size : 4.07 GiB (8%)
Language : English
Default : No
Forced : No

Audio #4
Format : AC-3
Commercial name : Dolby Digital
Duration : 1 h 58 min
Bit rate mode : Constant
Bit rate : 640 kb/s
Channel(s) : 6 channels
Channel layout : L R C LFE Ls Rs
Sampling rate : 48.0 kHz
Frame rate : 31.250 FPS (1536 SPF)
Compression mode : Lossy
Stream size : 541 MiB (1%)
Language : English
Default : No
Forced : No

Audio #5
Format : AC-3
Commercial name : Dolby Digital
Duration : 1 h 58 min
Bit rate mode : Constant
Bit rate : 192 kb/s
Channel(s) : 2 channels
Channel layout : L R
Sampling rate : 48.0 kHz
Frame rate : 31.250 FPS (1536 SPF)
Compression mode : Lossy
Stream size : 162 MiB (0%)
Title : Commentary By Director Jon Favreau
Language : English
Service kind : Complete Main
Default : No
Forced : No

Text #1
Format : UTF-8
Language : Czech
Default : Yes
Forced : Yes

Text #2
Format : UTF-8
Language : Czech
Default : No
Forced : No

Text #3
Format : PGS
Language : Czech
Default : No
Forced : Yes

Text #4
Format : PGS
Language : Czech
Default : No
Forced : No


FASTSHARE

Pouze Registrovaní uživatelé mohou prohlížet odkazy v tagu code! Registrujte se anebo se Přihlašte na fórum.


Balené bez kompresie. Bez hesla. Pridaný záznam pre opravu dát 5%.


Nahoru 
 Profil  
 
Zobrazit příspěvky za předchozí:  Seřadit podle  
 
Odeslat nové téma Odpovědět na téma  [ Příspěvků: 2 ] 

Obsah fóra » Filmy download » HD filmy a jiné » HD filmy cz/sk


 
Nemůžete zakládat nová témata v tomto fóru
Nemůžete odpovídat v tomto fóru
Nemůžete upravovat své příspěvky v tomto fóru
Nemůžete mazat své příspěvky v tomto fóru
Nemůžete přikládat soubory v tomto fóru

Hledat:
Přejít na:  







cron
TOPlist
Český překlad – phpBB.cz
Karma functions powered by Karma MOD © 2007, 2009 m157y
phpBB SEO



..:: Žádný ze zobrazených souborů, které můžete nalézt na tomto fóru, nejsou umístěny na tomto serveru. Autoři stránky nenesou zodpovědnost za příspěvky odeslané užívateli,ani za jejich další akce,které by mohli vést k porušování zákonů. Za své příspěvky zodpovídají uživatelé. Nepoužívejte tyto stránky k distribuci a nebo k downloadu jakýchkoliv materiálů, ke kterým nemáte legální oprávnění a nebo licenci ::..