Vítejte na stránkách . Klikněte zde pro registraci

Uživatelské jméno:   Heslo:   Pamätat si ma  Skrýt můj online stav 
Registrovat    Přihlásit se    Fórum    Hledat    FAQ
Bannery     Kontakt   


Informační Panel

Forum je na prodej,v případě zájmu pište zde contact.php




www.centralwar.eu
www.centralwar.eu

Obsah fóra » Filmy download » HD filmy a jiné » HD filmy cz/sk




Odeslat nové téma Odpovědět na téma  [ Příspěvků: 3 ] 
Autor Zpráva
 Předmět příspěvku: Tango a Cash / Tango & Cash (1989)
 Příspěvek Napsal: 07 kvě 2011, 10:47 
Offline
V.I.P

Registrován: 02 říj 2010, 08:56
ID Užívateľa: 40197

Online: 6d 17h 13m 41s
Poďakoval: 1 x
Obdržal: 5 x


Částka:
18,551.75



Karma: 0



Medals: 2
Tango & Cash (1989) / 1080p / CZ, EN
Obrázek

Obrázek
Pouze Registrovaní uživatelé mohou prohlížet odkazy v tagu code! Registrujte se anebo se Přihlašte na fórum.



Obrázek
GENERAL 1080p CZ
Citace:
Format : Matroska
File size : 8.75 GiB
Duration : 1h 43mn
Overall bit rate : 12.1 Mbps
Movie name : Tango & Cash (1989)

Writing library : libebml v0.7.9 + libmatroska v0.8.1

Video
ID : 1
Format : AVC
Format/Info : Advanced Video Codec
Format profile : High@L5.0
Format settings, CABAC : Yes
Format settings, ReFrames : 8 frames
Codec ID : V_MPEG4/ISO/AVC
Duration : 1h 43mn
Bit rate : 9 509 Kbps
Width : 1 920 pixels
Height : 804 pixels
Display aspect ratio : 2.35:1
Original display aspect ratio : 2.35:1
Frame rate : 23.976 fps
Color space : YUV
Chroma subsampling : 4:2:0
Bit depth : 8 bits
Scan type : Progressive
Bits/(Pixel*Frame) : 0.257
Stream size : 6.72 GiB (77%)
Title : Video track
Writing library : x264 core 67 r1128M 682b54d
Encoding settings : cabac=1 / ref=8 / deblock=1:-1:-1 / analyse=0x3:0x133 / me=umh / subme=8 / psy_rd=1.0:0.0 / mixed_ref=1 / me_range=16 / chroma_me=1 / trellis=2 / 8x8dct=1 / cqm=0 / deadzone=21,11 / chroma_qp_offset=-2 / threads=3 / nr=0 / decimate=1 / mbaff=0 / bframes=3 / b_pyramid=1 / b_adapt=2 / b_bias=0 / direct=3 / wpredb=1 / keyint=250 / keyint_min=25 / scenecut=40 / rc=2pass / bitrate=9509 / ratetol=1.0 / qcomp=0.60 / qpmin=10 / qpmax=51 / qpstep=4 / cplxblur=20.0 / qblur=0.5 / ip_ratio=1.40 / pb_ratio=1.30 / aq=1:1.00

Audio #1
ID : 2
Format : AC-3
Format/Info : Audio Coding 3
Mode extension : CM (complete main)
Codec ID : A_AC3
Duration : 1h 43mn
Bit rate mode : Constant
Bit rate : 640 Kbps
Channel(s) : 6 channels
Channel positions : Front: L C R, Side: L R, LFE
Sampling rate : 48.0 KHz
Bit depth : 16 bits
Compression mode : Lossy
Stream size : 475 MiB (5%)
Title : CZ audio - Rímský - 5.1 AC3 Remaster
Language : Czech

Audio #2
ID : 3
Format : AC-3
Format/Info : Audio Coding 3
Format profile : Dolby Digital
Mode extension : CM (complete main)
Codec ID : A_AC3
Duration : 1h 43mn
Bit rate mode : Constant
Bit rate : 192 Kbps
Channel(s) : 2 channels
Channel positions : Front: L R
Sampling rate : 48.0 KHz
Bit depth : 16 bits
Compression mode : Lossy
Stream size : 143 MiB (2%)
Title : Cz audio - Soukup - 2.0 AC3
Language : Czech

Audio #3
ID : 4
Format : AC-3
Format/Info : Audio Coding 3
Mode extension : CM (complete main)
Codec ID : A_AC3
Duration : 1h 43mn
Bit rate mode : Constant
Bit rate : 224 Kbps
Channel(s) : 2 channels
Channel positions : Front: L R
Sampling rate : 48.0 KHz
Bit depth : 16 bits
Compression mode : Lossy
Stream size : 166 MiB (2%)
Title : Cz audio - Pomeje - 2.0 AC3
Language : Czech

Audio #4
ID : 5
Format : DTS
Format/Info : Digital Theater Systems
Codec ID : A_DTS
Duration : 1h 43mn
Bit rate mode : Constant
Bit rate : 1 510 Kbps
Channel(s) : 6 channels
Channel positions : Front: L C R, Side: L R, LFE
Sampling rate : 48.0 KHz
Bit depth : 24 bits
Compression mode : Lossy
Stream size : 1.09 GiB (13%)
Title : Eng audio - DTS
Language : English

Text #1
ID : 6
Format : UTF-8
Codec ID : S_TEXT/UTF8
Codec ID/Info : UTF-8 Plain Text
Title : Cz subtitles
Language : Czech

Text #2
ID : 7
Format : ASS
Codec ID : S_TEXT/ASS
Codec ID/Info : Advanced Sub Station Alpha
Compression mode : Lossless
Title : Eng subtitles
Language : English



Obrázek
Obrázek
Pouze Registrovaní uživatelé mohou prohlížet odkazy v tagu code! Registrujte se anebo se Přihlašte na fórum.


Obrázek
Obrázek
Pouze Registrovaní uživatelé mohou prohlížet odkazy v tagu code! Registrujte se anebo se Přihlašte na fórum.


Naposledy upravil drobec dne 15 črc 2011, 19:42, celkově upraveno 1

Nahoru 
 Profil  
 
 Předmět příspěvku: Tango a Cash / Tango & Cash (1989)
 Příspěvek Napsal: 28 úno 2012, 10:45 
Offline
V.I.P
Uživatelský avatar

Registrován: 22 dub 2010, 20:27
ID Užívateľa: 37478

Online: 1d 22h 21m 25s
Poďakoval: 0 x
Obdržal: 2 x


Částka:
16,235.45



Karma: 0



Medals: 2
Název: Tango a Cash / Tango & Cash (1989)

Zdroj: Tango.&.Cash.1989.1080p.BluRay x264.En.CZ

Obrázek

Obrázek


Obrázek

Pouze Registrovaní uživatelé mohou prohlížet odkazy v tagu code! Registrujte se anebo se Přihlašte na fórum.


Obrázek

Citace:
Krimi / Akční / Komedie / Thriller
USA, 1989, 98 min


CSFD 75 %
IMDb Rating 5.9


Režie: Albert Magnoli, Andrej Končalovskij
Hudba: Harold Faltermeyer
Hrají: Sylvester Stallone, Kurt Russell, Teri Hatcher, Jack Palance, Brion James, James Hong, Philip Tan, Michael J. Pollard, Robert Z'Dar, Lewis Arquette, Edward Bunker, Richard Fancy, Michael Jeter, Clint Howard, Andre Rosey Brown, Tamara Landry, Geoffrey Lewis, Glenn Morshower, Billy Blanks, Benny Urquidez, Kristen Dalton


Vždy elegantně oblečený policista Ray Tango a jeho kolega nedbalého zevnějšku Gabe Cash patří k nejvýkonnějším ochráncům zákona v Los Angeles a důkladně znepříjemňují život a obchody mocnému gangsterskému šéfovi Perretovi. Místo, aby je nechal zavraždit, rozhodne se Perret zbavit se svých protivníků promyšleným způsobem. Oba policisté jsou vylákáni do opuštěného skladiště a pomocí zfalšovaného magnetofonového pásku obviněni z vraždy federálního agenta. Jsou posláni do vězení, kde se setkávají s řadou svých bývalých nepřátel, dychtících po pomstě. S přispěním policejního kapitána, který za vším tuší nekalou hru zločineckého podsvětí, se jim podaří za dramatických okolností uprchnout. Oba do té doby velcí rivalové Tango a Cash jsou nuceni spolupracovat, aby očistili svou pověst. Nedá jim mnoho práce zjistit, kdo za celým komplotem vězí. S vypůjčeným speciálním policejním vozidlem napadnou a zničí opevněný Perretův úkryt a gangsterovi nepomůže ani Tangova sestra Kiki, jíž se zmocnil jako rukojmí. Tango a Cash Perreta zlikvidují a jsou znovu přijati k policii. Cash má konečně čas se pořádně dvořit Kiki, i Když Tango má zásadní námitky proti tomu, aby jeho sestra chodila s policistou. (oficiální text distributora)

Complete name : D:\filmy download\Tango a Cash\Tango a Cash.mkv
Format : Matroska
File size : 8.75 GiB
Duration : 1h 43mn
Overall bit rate : 12.1 Mbps
Movie name : Tango & Cash (1989)
Encoded date : UTC 2010-05-15 07:04:03
Writing application : mkvmerge v3.2.0 ('Beginnings') built on Feb 12 2010 16:46:17
Writing library : libebml v0.7.9 + libmatroska v0.8.1

Video
ID : 1
Format : AVC
Format/Info : Advanced Video Codec
Format profile : High@L5.0
Format settings, CABAC : Yes
Format settings, ReFrames : 8 frames
Muxing mode : Container profile=Unknown@5.0
Codec ID : V_MPEG4/ISO/AVC
Duration : 1h 43mn
Bit rate : 9 269 Kbps
Nominal bit rate : 9 509 Kbps
Width : 1 920 pixels
Height : 804 pixels
Display aspect ratio : 2.35
Frame rate : 23.976 fps
Resolution : 24 bits
Colorimetry : 4:2:0
Scan type : Progressive
Bits/(Pixel*Frame) : 0.250
Stream size : 6.71 GiB (77%)
Title : Video track
Writing library : x264 core 67 r1128M 682b54d
Encoding settings : cabac=1 / ref=8 / deblock=1:-1:-1 / analyse=0x3:0x133 / me=umh / subme=8 / psy_rd=1.0:0.0 / mixed_ref=1 / me_range=16 / chroma_me=1 / trellis=2 / 8x8dct=1 / cqm=0 / deadzone=21,11 / chroma_qp_offset=-2 / threads=3 / nr=0 / decimate=1 / mbaff=0 / bframes=3 / b_pyramid=1 / b_adapt=2 / b_bias=0 / direct=3 / wpredb=1 / keyint=250 / keyint_min=25 / scenecut=40 / rc=2pass / bitrate=9509 / ratetol=1.0 / qcomp=0.60 / qpmin=10 / qpmax=51 / qpstep=4 / cplxblur=20.0 / qblur=0.5 / ip_ratio=1.40 / pb_ratio=1.30 / aq=1:1.00

Audio #1
ID : 2
Format : AC-3
Format/Info : Audio Coding 3
Codec ID : A_AC3
Duration : 1h 43mn
Bit rate mode : Constant
Bit rate : 640 Kbps
Channel(s) : 6 channels
Channel positions : Front: L C R, Surround: L R, LFE
Sampling rate : 48.0 KHz
Stream size : 475 MiB (5%)
Title : CZ audio - Rímský - 5.1 AC3 Remaster
Language : Czech

Audio #2
ID : 3
Format : AC-3
Format/Info : Audio Coding 3
Format profile : Dolby Digital
Codec ID : A_AC3
Duration : 1h 43mn
Bit rate mode : Constant
Bit rate : 192 Kbps
Channel(s) : 2 channels
Channel positions : L R
Sampling rate : 48.0 KHz
Stream size : 143 MiB (2%)
Title : Cz audio - Soukup - 2.0 AC3
Language : Czech

Audio #3
ID : 4
Format : AC-3
Format/Info : Audio Coding 3
Codec ID : A_AC3
Duration : 1h 43mn
Bit rate mode : Constant
Bit rate : 224 Kbps
Channel(s) : 2 channels
Channel positions : L R
Sampling rate : 48.0 KHz
Stream size : 166 MiB (2%)
Title : Cz audio - Pomeje - 2.0 AC3
Language : Czech

Audio #4
ID : 5
Format : DTS
Format/Info : Digital Theater Systems
Codec ID : A_DTS
Duration : 1h 43mn
Bit rate mode : Constant
Bit rate : 1 510 Kbps
Channel(s) : 6 channels
Channel positions : Front: L C R, Surround: L R, LFE
Sampling rate : 48.0 KHz
Resolution : 24 bits
Stream size : 1.09 GiB (13%)
Title : Eng audio - DTS
Language : English

Text #1
ID : 6
Format : UTF-8
Codec ID : S_TEXT/UTF8
Codec ID/Info : UTF-8 Plain Text
Title : Cz subtitles
Language : Czech

Text #2
ID : 7
Format : ASS
Codec ID : S_TEXT/ASS
Codec ID/Info : Advanced Sub Station Alpha
Title : Eng subtitles
Language : English



Obrázek

Obrázek

Pouze Registrovaní uživatelé mohou prohlížet odkazy v tagu code! Registrujte se anebo se Přihlašte na fórum.


Obrázek

Pouze Registrovaní uživatelé mohou prohlížet odkazy v tagu code! Registrujte se anebo se Přihlašte na fórum.


Obrázek

Pouze Registrovaní uživatelé mohou prohlížet odkazy v tagu code! Registrujte se anebo se Přihlašte na fórum.



Obrázek

Pouze Registrovaní uživatelé mohou prohlížet odkazy v tagu code! Registrujte se anebo se Přihlašte na fórum.

_________________
Obrázek


Nahoru 
 Profil  
 
 Předmět příspěvku: Tango a Cash / Tango & Cash (1989)
 Příspěvek Napsal: 14 zář 2021, 16:57 
Offline
Registrovaní uživatelé

Registrován: 04 zář 2007, 13:04
ID Užívateľa: 818

Online: 14d 3h 42m 22s
Poďakoval: 0 x
Obdržal: 1 x


Částka:
44,609.15



Karma: 0


Tango a Cash / Tango & Cash (1989)

Pouze Registrovaní uživatelé mohou prohlížet odkazy v tagu code! Registrujte se anebo se Přihlašte na fórum.


Obrázek
Obrázek
Obrázek

Pouze Registrovaní uživatelé mohou prohlížet odkazy v tagu code! Registrujte se anebo se Přihlašte na fórum.

_________________
ObrázekBTC, LTC, ETH
1LWRgkaTCsxigEfy9cKc5XGmWntiiGXEbh


Nahoru 
 Profil  
 
Zobrazit příspěvky za předchozí:  Seřadit podle  
 
Odeslat nové téma Odpovědět na téma  [ Příspěvků: 3 ] 

Obsah fóra » Filmy download » HD filmy a jiné » HD filmy cz/sk


 
Nemůžete zakládat nová témata v tomto fóru
Nemůžete odpovídat v tomto fóru
Nemůžete upravovat své příspěvky v tomto fóru
Nemůžete mazat své příspěvky v tomto fóru
Nemůžete přikládat soubory v tomto fóru

Hledat:
Přejít na:  







cron
TOPlist
Český překlad – phpBB.cz
Karma functions powered by Karma MOD © 2007, 2009 m157y
phpBB SEO



..:: Žádný ze zobrazených souborů, které můžete nalézt na tomto fóru, nejsou umístěny na tomto serveru. Autoři stránky nenesou zodpovědnost za příspěvky odeslané užívateli,ani za jejich další akce,které by mohli vést k porušování zákonů. Za své příspěvky zodpovídají uživatelé. Nepoužívejte tyto stránky k distribuci a nebo k downloadu jakýchkoliv materiálů, ke kterým nemáte legální oprávnění a nebo licenci ::..