Vítejte na stránkách . Klikněte zde pro registraci

Uživatelské jméno:   Heslo:   Pamätat si ma  Skrýt můj online stav 
Registrovat    Přihlásit se    Fórum    Hledat    FAQ
Bannery     Kontakt   


Informační Panel

Forum je na prodej,v případě zájmu pište zde contact.php




www.centralwar.eu
www.centralwar.eu

Obsah fóra » Filmy download » HD filmy a jiné » HD filmy cz/sk




Odeslat nové téma Odpovědět na téma  [ Příspěvků: 3 ] 
Autor Zpráva
 Předmět příspěvku: Eragon (2006)
 Příspěvek Napsal: 20 kvě 2011, 09:43 
Offline
V.I.P

Registrován: 02 říj 2010, 08:56
ID Užívateľa: 40197

Online: 6d 17h 13m 41s
Poďakoval: 1 x
Obdržal: 5 x


Částka:
18,551.75



Karma: 0



Medals: 2
Eragon / 1080p / DTS 5.1ENG , DD 5.1CZ
Obrázek

Obrázek
Pouze Registrovaní uživatelé mohou prohlížet odkazy v tagu code! Registrujte se anebo se Přihlašte na fórum.



Obrázek
GENERAL 1080p CZ
Citace:

Format : Matroska
File size : 16.9 GiB
Duration : 1h 43mn
Overall bit rate : 23.4 Mbps

Writing library : libebml v1.2.0 + libmatroska v1.1.0

Video
ID : 1
Format : MPEG Video
Format version : Version 2
Format profile : Main@High
Format settings, BVOP : Yes
Format settings, Matrix : Default
Codec ID : V_MPEG2
Codec ID/Info : MPEG 1 or 2 Video
Duration : 1h 43mn
Bit rate mode : Variable
Nominal bit rate : 38.0 Mbps
Width : 1 920 pixels
Height : 1 080 pixels
Display aspect ratio : 16:9
Frame rate : 23.976 fps
Color space : YUV
Chroma subsampling : 4:2:0
Bit depth : 8 bits
Scan type : Progressive
Bits/(Pixel*Frame) : 0.764


Audio #1
ID : 2
Format : DTS
Format/Info : Digital Theater Systems
Format profile : MA
Codec ID : A_DTS
Duration : 1h 43mn
Bit rate mode : Variable
Channel(s) : 6 channels
Channel positions : Front: L C R, Side: L R, LFE
Sampling rate : 48.0 KHz
Bit depth : 24 bits
Title : DTS MA 5.1EN by Farell

Audio #2
ID : 3
Format : AC-3
Format/Info : Audio Coding 3
Mode extension : CM (complete main)
Codec ID : A_AC3
Duration : 1h 43mn
Bit rate mode : Constant
Bit rate : 384 Kbps
Channel(s) : 6 channels
Channel positions : Front: L C R, Side: L R, LFE
Sampling rate : 48.0 KHz
Bit depth : 16 bits
Stream size : 284 MiB (2%)
Title : DD 5.1CZ by Farell
Language : Czech



Obrázek
Obrázek
Pouze Registrovaní uživatelé mohou prohlížet odkazy v tagu code! Registrujte se anebo se Přihlašte na fórum.


Naposledy upravil drobec dne 15 črc 2011, 19:35, celkově upraveno 1

Nahoru 
 Profil  
 
 Předmět příspěvku: Eragon (2006)
 Příspěvek Napsal: 18 zář 2011, 22:09 
Offline
V.I.P
Uživatelský avatar

Registrován: 22 dub 2010, 20:27
ID Užívateľa: 37478

Online: 1d 22h 21m 25s
Poďakoval: 0 x
Obdržal: 2 x


Částka:
16,235.45



Karma: 0



Medals: 2
Název: Eragon (2006)

Zdroj: Eragon.2006.1080p.DD5.1ENG.DD5.1CZ

Obrázek

Obrázek


Obrázek

Pouze Registrovaní uživatelé mohou prohlížet odkazy v tagu code! Registrujte se anebo se Přihlašte na fórum.


Obrázek


Citace:
Sci-Fi / Fantasy / Akční
USA / Velká Británie / Maďarsko, 2006, 104 min


Režie: Stefen Fangmeier
Hudba: Patrick Doyle
Hrají: Ed Speleers, Jeremy Irons, Sienna Guillory, Robert Carlyle, John Malkovich, Garrett Hedlund, Alun Armstrong, Christopher Egan, Gary Lewis, Djimon Hounsou, Rachel Weisz, Joss Stone, Máté Haumann, Julian Stone


Chudý farmářský chlapec Eragon najde v Dračích horách podivný modrý kámen. Zprvu ho chce pouze zpeněžit a zabezpečit jím rodinu na nadcházející krutou zimu, jenže když se z kamene "vyklube" dračí vejce a z něj později dračí mládě - Safira, uvědomí si, že stojí tváří v tvář dobrodružství, které sahá vysoko nad jeho možnosti. Jeho prostý život přes noc zanikne a on se ocitne v novém, nebezpečném světě intrik, kouzel a válek. Pouze se starodávným mečem a moudrým průvodcem musí Eragon se Safirou zdolávat nebezpečné situace a odolávat temným silám v království, kterému vládne král, jehož zlo nezná hranic. Dokáže Eragon naplnit své předurčení a převzít břímě legendárních Dračích jezdců? Osud království možná leží v jeho rukou...

Formát : Matroska
File size : 16.9 GiB
Duration : 1h 43mn
Overall bit rate : 23.4 Mbps

Writing library : libebml v1.2.0 + libmatroska v1.1.0

Video
ID : 1
Format : MPEG Video
Format version : Version 2
Format profile : Main@High
Format settings, BVOP : Yes
Format settings, Matrix : Default
Codec ID : V_MPEG2
Codec ID/Info : MPEG 1 or 2 Video
Duration : 1h 43mn
Bit rate mode : Variable
Nominal bit rate : 38.0 Mbps
Width : 1 920 pixels
Height : 1 080 pixels
Display aspect ratio : 16:9
Frame rate : 23.976 fps
Color space : YUV
Chroma subsampling : 4:2:0
Bit depth : 8 bits
Scan type : Progressive
Bits/(Pixel*Frame) : 0.764


Audio #1
ID : 2
Format : DTS
Format/Info : Digital Theater Systems
Format profile : MA
Codec ID : A_DTS
Duration : 1h 43mn
Bit rate mode : Variable
Channel(s) : 6 channels
Channel positions : Front: L C R, Side: L R, LFE
Sampling rate : 48.0 KHz
Bit depth : 24 bits
Title : DTS MA 5.1EN by Farell

Audio #2
ID : 3
Format : AC-3
Format/Info : Audio Coding 3
Mode extension : CM (complete main)
Codec ID : A_AC3
Duration : 1h 43mn
Bit rate mode : Constant
Bit rate : 384 Kbps
Channel(s) : 6 channels
Channel positions : Front: L C R, Side: L R, LFE
Sampling rate : 48.0 KHz
Bit depth : 16 bits
Stream size : 284 MiB (2%)
Title : DD 5.1CZ by Farell
Language : Czech



Obrázek

Obrázek

Pouze Registrovaní uživatelé mohou prohlížet odkazy v tagu code! Registrujte se anebo se Přihlašte na fórum.


Obrázek

Pouze Registrovaní uživatelé mohou prohlížet odkazy v tagu code! Registrujte se anebo se Přihlašte na fórum.


Obrázek

Pouze Registrovaní uživatelé mohou prohlížet odkazy v tagu code! Registrujte se anebo se Přihlašte na fórum.



Obrázek

Pouze Registrovaní uživatelé mohou prohlížet odkazy v tagu code! Registrujte se anebo se Přihlašte na fórum.

Zákaz Reuploadu mého příspěvku na jakýkoliv server a vynášení na Torenty a jiná warez fora,
než na jaká postuji !!!

_________________
Obrázek


Nahoru 
 Profil  
 
 Předmět příspěvku: Eragon (2006)
 Příspěvek Napsal: 27 zář 2021, 20:41 
Offline
Registrovaní uživatelé

Registrován: 04 zář 2007, 13:04
ID Užívateľa: 818

Online: 14d 3h 42m 22s
Poďakoval: 0 x
Obdržal: 1 x


Částka:
44,609.15



Karma: 0


Eragon (2006)

Pouze Registrovaní uživatelé mohou prohlížet odkazy v tagu code! Registrujte se anebo se Přihlašte na fórum.


Obrázek
Obrázek
Obrázek

Pouze Registrovaní uživatelé mohou prohlížet odkazy v tagu code! Registrujte se anebo se Přihlašte na fórum.

_________________
ObrázekBTC, LTC, ETH
1LWRgkaTCsxigEfy9cKc5XGmWntiiGXEbh


Nahoru 
 Profil  
 
Zobrazit příspěvky za předchozí:  Seřadit podle  
 
Odeslat nové téma Odpovědět na téma  [ Příspěvků: 3 ] 

Obsah fóra » Filmy download » HD filmy a jiné » HD filmy cz/sk


 
Nemůžete zakládat nová témata v tomto fóru
Nemůžete odpovídat v tomto fóru
Nemůžete upravovat své příspěvky v tomto fóru
Nemůžete mazat své příspěvky v tomto fóru
Nemůžete přikládat soubory v tomto fóru

Hledat:
Přejít na:  







cron
TOPlist
Český překlad – phpBB.cz
Karma functions powered by Karma MOD © 2007, 2009 m157y
phpBB SEO



..:: Žádný ze zobrazených souborů, které můžete nalézt na tomto fóru, nejsou umístěny na tomto serveru. Autoři stránky nenesou zodpovědnost za příspěvky odeslané užívateli,ani za jejich další akce,které by mohli vést k porušování zákonů. Za své příspěvky zodpovídají uživatelé. Nepoužívejte tyto stránky k distribuci a nebo k downloadu jakýchkoliv materiálů, ke kterým nemáte legální oprávnění a nebo licenci ::..