Vítejte na stránkách . Klikněte zde pro registraci

Uživatelské jméno:   Heslo:   Pamätat si ma  Skrýt můj online stav 
Registrovat    Přihlásit se    Fórum    Hledat    FAQ
Bannery     Kontakt   


Informační Panel

Forum je na prodej,v případě zájmu pište zde contact.php




www.centralwar.eu
www.centralwar.eu

Obsah fóra » Filmy download » HD filmy a jiné » HD filmy cz/sk




Odeslat nové téma Odpovědět na téma  [ Příspěvků: 2 ] 
Autor Zpráva
 Předmět příspěvku: Dům na špatné adrese / Lakeview Terrace (2008)
 Příspěvek Napsal: 25 kvě 2011, 17:24 
Offline
V.I.P

Registrován: 02 říj 2010, 08:56
ID Užívateľa: 40197

Online: 6d 17h 13m 41s
Poďakoval: 1 x
Obdržal: 5 x


Částka:
18,551.75



Karma: 0



Medals: 2
Dům na špatné adrese / Lakeview Terrace (2008) / 1080p / CZ
Obrázek

Obrázek
Pouze Registrovaní uživatelé mohou prohlížet odkazy v tagu code! Registrujte se anebo se Přihlašte na fórum.



Obrázek
GENERAL 1080p CZ
Citace:
Format : Matroska
File size : 8.24 GiB
Duration : 1h 50mn
Overall bit rate : 10.7 Mbps

Writing library : libebml v0.7.7 + libmatroska v0.8.1

Video
ID : 1
Format : AVC
Format/Info : Advanced Video Codec
Format profile : High@L4.1
Format settings, CABAC : Yes
Format settings, ReFrames : 5 frames
Codec ID : V_MPEG4/ISO/AVC
Duration : 1h 50mn
Bit rate : 9 659 Kbps
Width : 1 920 pixels
Height : 800 pixels
Display aspect ratio : 2.40:1
Frame rate : 23.976 fps
Color space : YUV
Chroma subsampling : 4:2:0
Bit depth : 8 bits
Scan type : Progressive
Bits/(Pixel*Frame) : 0.262
Stream size : 7.29 GiB (88%)

Encoding settings : cabac=1 / ref=5 / deblock=1:-1:-1 / analyse=0x3:0x113 / me=umh / subme=7 / psy_rd=1.0:0.0 / mixed_ref=1 / me_range=16 / chroma_me=1 / trellis=2 / 8x8dct=1 / cqm=0 / deadzone=21,11 / chroma_qp_offset=-2 / threads=6 / nr=0 / decimate=1 / mbaff=0 / bframes=3 / b_pyramid=0 / b_adapt=2 / b_bias=0 / direct=3 / wpredb=1 / keyint=250 / keyint_min=25 / scenecut=40(pre) / rc=2pass / bitrate=9659 / ratetol=1.0 / qcomp=0.60 / qpmin=10 / qpmax=51 / qpstep=4 / cplxblur=20.0 / qblur=0.5 / vbv_maxrate=50000 / vbv_bufsize=50000 / ip_ratio=1.40 / pb_ratio=1.30 / aq=1:1.00
Language : English

Audio #1
ID : 2
Format : AC-3
Format/Info : Audio Coding 3
Mode extension : CM (complete main)
Codec ID : A_AC3
Duration : 1h 50mn
Bit rate mode : Constant
Bit rate : 384 Kbps
Channel(s) : 6 channels
Channel positions : Front: L C R, Side: L R, LFE
Sampling rate : 48.0 KHz
Bit depth : 16 bits
Compression mode : Lossy
Stream size : 303 MiB (4%)
Language : Czech

Audio #2
ID : 3
Format : AC-3
Format/Info : Audio Coding 3
Mode extension : CM (complete main)
Codec ID : A_AC3
Duration : 1h 50mn
Bit rate mode : Constant
Bit rate : 640 Kbps
Channel(s) : 6 channels
Channel positions : Front: L C R, Side: L R, LFE
Sampling rate : 48.0 KHz
Bit depth : 16 bits
Compression mode : Lossy
Stream size : 506 MiB (6%)
Language : English

Text
ID : 4
Format : UTF-8
Codec ID : S_TEXT/UTF8
Codec ID/Info : UTF-8 Plain Text
Language : Czech



Obrázek
Obrázek
Pouze Registrovaní uživatelé mohou prohlížet odkazy v tagu code! Registrujte se anebo se Přihlašte na fórum.


Naposledy upravil drobec dne 15 črc 2011, 19:34, celkově upraveno 1

Nahoru 
 Profil  
 
 Předmět příspěvku: Dům na špatné adrese / Lakeview Terrace (2008)
 Příspěvek Napsal: 17 čer 2021, 18:01 
Offline
Registrovaní uživatelé

Registrován: 04 zář 2007, 13:04
ID Užívateľa: 818

Online: 8d 3h 19m 17s
Poďakoval: 0 x
Obdržal: 0 x


Částka:
26,212.45



Karma: 0


Dům na špatné adrese / Lakeview Terrace (2008)

Pouze Registrovaní uživatelé mohou prohlížet odkazy v tagu code! Registrujte se anebo se Přihlašte na fórum.


Obrázek
Obrázek
Obrázek

Pouze Registrovaní uživatelé mohou prohlížet odkazy v tagu code! Registrujte se anebo se Přihlašte na fórum.

_________________
ObrázekBTC, LTC, ETH
1LWRgkaTCsxigEfy9cKc5XGmWntiiGXEbh


Nahoru 
 Profil  
 
Zobrazit příspěvky za předchozí:  Seřadit podle  
 
Odeslat nové téma Odpovědět na téma  [ Příspěvků: 2 ] 

Obsah fóra » Filmy download » HD filmy a jiné » HD filmy cz/sk


 
Nemůžete zakládat nová témata v tomto fóru
Nemůžete odpovídat v tomto fóru
Nemůžete upravovat své příspěvky v tomto fóru
Nemůžete mazat své příspěvky v tomto fóru
Nemůžete přikládat soubory v tomto fóru

Hledat:
Přejít na:  







TOPlist
Český překlad – phpBB.cz
Karma functions powered by Karma MOD © 2007, 2009 m157y
phpBB SEO



..:: Žádný ze zobrazených souborů, které můžete nalézt na tomto fóru, nejsou umístěny na tomto serveru. Autoři stránky nenesou zodpovědnost za příspěvky odeslané užívateli,ani za jejich další akce,které by mohli vést k porušování zákonů. Za své příspěvky zodpovídají uživatelé. Nepoužívejte tyto stránky k distribuci a nebo k downloadu jakýchkoliv materiálů, ke kterým nemáte legální oprávnění a nebo licenci ::..