Vítejte na stránkách . Klikněte zde pro registraci

Uživatelské jméno:   Heslo:   Pamätat si ma  Skrýt můj online stav 
Registrovat    Přihlásit se    Fórum    Hledat    FAQ
Bannery     Kontakt   


Informační Panel

Forum je na prodej,v případě zájmu pište zde contact.php




www.centralwar.eu
www.centralwar.eu

Obsah fóra » Filmy download » HD filmy a jiné » HD filmy cz/sk




Odeslat nové téma Odpovědět na téma  [ Příspěvků: 2 ] 
Autor Zpráva
 Předmět příspěvku: Stav obležení / The Siege (1998)
 Příspěvek Napsal: 05 říj 2011, 22:03 
Offline
V.I.P
Uživatelský avatar

Registrován: 22 dub 2010, 20:27
ID Užívateľa: 37478

Online: 1d 22h 21m 25s
Poďakoval: 0 x
Obdržal: 2 x


Částka:
16,235.45



Karma: 0



Medals: 2
Název: Stav obležení / The Siege (1998)

Zdroj: The.Siege.1998.1080p.BluRay.x264-TiMELORDS / EN+CZ

Obrázek

Obrázek


Obrázek

Pouze Registrovaní uživatelé mohou prohlížet odkazy v tagu code! Registrujte se anebo se Přihlašte na fórum.


Obrázek


Citace:
Akční / Thriller / Drama
USA, 1998, 111 min


Režie: Edward Zwick
Hudba: Graeme Revell
Hrají: Denzel Washington, Annette Bening, Bruce Willis, Tony Shalhoub, Sami Bouajila, Lianna Pai, Mark Valley, David Proval, William Hill, Aasif Mandvi, Said Faraj, Ben Shenkman, Neal Jones, Dakin Matthews, John Rothman, Jimmie Ray Weeks, Wood Harris, Chris Messina, Lance Reddick, Will Lyman, David Costabile, Victor Slezak, Susie Essman


Šéf protiteroristického oddělení FBI a Newyorské policie Hubbard musí čelit nečekané vlně teroru, iniciovaného Araby. Setká se přitom s agentkou CIA, specialistkou na Blízký východ Elise Kraftovou, která má úzkou vazbu na svého informátora a milence Samira. Hubbard zpočátku svůj nerovný boj prohrává a panika v ulicích měst vede k vyhlášení výjímečného stavu. Velitel armády, pragmatický generál Deveraux, hájí zájmy země naprosto militantně. (oficiální text distributora)

Formát : Matroska
File size : 10.9 GiB
Duration : 1h 56mn
Overall bit rate : 13.5 Mbps
Writing application : mkvmerge v4.9.1 ('Ich will') built on Jul 11 2011 23:53:15
Writing library : libebml v1.2.1 + libmatroska v1.1.1

Video
ID : 1
Format : AVC
Format/Info : Advanced Video Codec
Format profile : High@L4.1
Format settings, CABAC : Yes
Format settings, ReFrames : 4 frames
Muxing mode : Container profile=Unknown@4.1
Codec ID : V_MPEG4/ISO/AVC
Duration : 1h 55mn
Bit rate : 11.4 Mbps
Nominal bit rate : 11.6 Mbps
Width : 1 920 pixels
Height : 816 pixels
Display aspect ratio : 2.35:1
Frame rate : 23.976 fps
Resolution : 8 bits
Colorimetry : 4:2:0
Scan type : Progressive
Bits/(Pixel*Frame) : 0.302
Stream size : 9.20 GiB (84%)
Title : Attacco al Potere (1998) - 1080p by MisterHD
Writing library : x264 core 112 r1867 22bfd31

Language : Italian

Audio #1
ID : 2
Format : DTS
Format/Info : Digital Theater Systems
Codec ID : A_DTS
Duration : 1h 56mn
Bit rate mode : Constant
Bit rate : 1 510 Kbps
Channel(s) : 6 channels
Channel positions : Front: L C R, Surround: L R, LFE
Sampling rate : 48.0 KHz
Resolution : 24 bits
Stream size : 1.22 GiB (11%)
Title : 1509 kbps @ DTS 5.1ch English

Audio #2
ID : 4
Format : AC-3
Format/Info : Audio Coding 3
Codec ID : A_AC3
Duration : 1h 56mn
Bit rate mode : Constant
Bit rate : 384 Kbps
Channel(s) : 2 channels
Channel positions : L R
Sampling rate : 48.0 KHz
Video delay : 2s 0ms
Stream size : 319 MiB (3%)
Title : CZ 2.0 DD 384@Kbps
Language : Czech

Text #1
ID : 3
Format : UTF-8
Codec ID : S_TEXT/UTF8
Codec ID/Info : UTF-8 Plain Text
Title : English

Text #2
ID : 5
Format : UTF-8
Codec ID : S_TEXT/UTF8
Codec ID/Info : UTF-8 Plain Text
Title : Cz
Language : Czech



Obrázek

Obrázek

Pouze Registrovaní uživatelé mohou prohlížet odkazy v tagu code! Registrujte se anebo se Přihlašte na fórum.


Obrázek

Pouze Registrovaní uživatelé mohou prohlížet odkazy v tagu code! Registrujte se anebo se Přihlašte na fórum.


Obrázek

Pouze Registrovaní uživatelé mohou prohlížet odkazy v tagu code! Registrujte se anebo se Přihlašte na fórum.



Obrázek

Pouze Registrovaní uživatelé mohou prohlížet odkazy v tagu code! Registrujte se anebo se Přihlašte na fórum.

_________________
Obrázek


Nahoru 
 Profil  
 
 Předmět příspěvku: Stav obležení / The Siege (1998)
 Příspěvek Napsal: 28 zář 2021, 18:04 
Offline
Registrovaní uživatelé

Registrován: 04 zář 2007, 13:04
ID Užívateľa: 818

Online: 14d 3h 42m 22s
Poďakoval: 0 x
Obdržal: 1 x


Částka:
44,609.15



Karma: 0


Stav obležení / The Siege (1998)

Pouze Registrovaní uživatelé mohou prohlížet odkazy v tagu code! Registrujte se anebo se Přihlašte na fórum.


Obrázek
Obrázek
Obrázek


Pouze Registrovaní uživatelé mohou prohlížet odkazy v tagu code! Registrujte se anebo se Přihlašte na fórum.

_________________
ObrázekBTC, LTC, ETH
1LWRgkaTCsxigEfy9cKc5XGmWntiiGXEbh


Nahoru 
 Profil  
 
Zobrazit příspěvky za předchozí:  Seřadit podle  
 
Odeslat nové téma Odpovědět na téma  [ Příspěvků: 2 ] 

Obsah fóra » Filmy download » HD filmy a jiné » HD filmy cz/sk


 
Nemůžete zakládat nová témata v tomto fóru
Nemůžete odpovídat v tomto fóru
Nemůžete upravovat své příspěvky v tomto fóru
Nemůžete mazat své příspěvky v tomto fóru
Nemůžete přikládat soubory v tomto fóru

Hledat:
Přejít na:  







cron
TOPlist
Český překlad – phpBB.cz
Karma functions powered by Karma MOD © 2007, 2009 m157y
phpBB SEO



..:: Žádný ze zobrazených souborů, které můžete nalézt na tomto fóru, nejsou umístěny na tomto serveru. Autoři stránky nenesou zodpovědnost za příspěvky odeslané užívateli,ani za jejich další akce,které by mohli vést k porušování zákonů. Za své příspěvky zodpovídají uživatelé. Nepoužívejte tyto stránky k distribuci a nebo k downloadu jakýchkoliv materiálů, ke kterým nemáte legální oprávnění a nebo licenci ::..