Vítejte na stránkách . Klikněte zde pro registraci

Uživatelské jméno:   Heslo:   Pamätat si ma  Skrýt můj online stav 
Registrovat    Přihlásit se    Fórum    Hledat    FAQ
Bannery     Kontakt   


Informační Panel

wel




www.centralwar.eu
www.centralwar.eu

Obsah fóra » Filmy download » Pro děti » CZ/SK dubbing


Pravidla fóra


1.Vkládejte pouze filmy pro děti
2.Téma musí obsahovat náhled obalu nebo screen(pokud obal není k dohledání na netu)
3.Informace (kvalita filmu,menu,titulky,dubbing,atd..)
4.Základní info o filmu (CSFD,IMDb)
5.Odkaz na CSFD (nově dávat do code)
6.Odkazy vedoucí mimo forum dávat do code
7.Heslo (pokud je) do code
8.Nezakládat duplicitní témata-používat tlačítko hledat
9.Obrázky vkládat do IMG
10.Název příspěvku musí obsahovat český i anglický název a rok jeho vydání-ten dávat do závorky!


Server STORAGE přešel pod server KICKLOAD,takže,v případě,že najdete nějaký mrtvý link Storage,prosím,nahlaste nám toto..děkujeme za pochopení



Odeslat nové téma Odpovědět na téma  [ Příspěvek: 1 ] 
Autor Zpráva
 Předmět příspěvku: Pojďte pane, budeme si hrát (1963)
 Příspěvek Napsal: 21 črc 2014, 11:13 
Offline
Superuploader
Uživatelský avatar

Registrován: 20 lis 2007, 14:02
ID Užívateľa: 4956

Bydliště: CZ/SK Warez
Online: 37d 1h 3m 48s
Poďakoval: 0 x
Obdržal: 27 x


Částka:
97,085.45



Karma: 5


Pojďte pane, budeme si hrát (1963)

Kdo to hodil, pánové
Mister, let's play
EWho threw that, gentlemen?

Pouze Registrovaní uživatelé mohou prohlížet odkazy v tagu code! Registrujte se anebo se Přihlašte na fórum.

ObrázekObrázek
Animovaný / Komedie / Rodinný
Československo, 1965, 76 + 75 min

Obsah:

Jeden je malý a hloupoučký. Druhý protáhlý a vychytralý s mlsným jazýčkem.
Jednoho dne se potkali u Kolína a dali se do řeči. Po dlouhém klábosení o
tom, jak měli geniální předky a příbuzné zjistí, že jsou bráchové a začnou
si spolu hrát. Prožívají spolu mnohá dobrodružství a hry, které však nejsou
ze strany toho většího zrovna čestnou zábavou. Ale malý medvídek to snáší
vcelku dobře a tak oba navozují řadu úsměvných situací.


Pojďte pane, budeme si hrát 1
Namluvil: Rudolf Deyl ml.
1. Potkali se u Kolína
2. Jak jeli k vodě
3. K princeznám se nečuchá
4. Jak jedli vtipnou kaši
5. Držte si klobouk
6. Jak šli spát

Pojďte pane, budeme si hrát 2
Známé také pod názvem Kdo to hodil, pánové?
Namluvil: František Filipovský
1. Co to bouchlo
2. Psí kusy
3. O pardálu, který voněl
4. A Neříkej mi Vašíku
5. Nazdar kedlubny(formelin)



Výpis kvality první části:

Format : AVI
Format/Info : Audio Video Interleave
File size : 270 MiB
Duration : 13mn 20s
Overall bit rate : 2 832 Kbps
Writing application : Lavf51.12.1
Video #0
ID : 0
Format : MPEG-4 Visual
Format profile : Simple@L1
Format settings, BVOP : No
Format settings, QPel : No
Format settings, GMC : No warppoints
Format settings, Matrix : Default (H.263)
Codec ID : divx
Codec ID/Info : Mainly used by Google
Codec ID/Hint : DivX
Duration : 13mn 20s
Bit rate : 2 499 Kbps
Width : 720 pixels
Height : 576 pixels
Display aspect ratio : 5:4
Frame rate : 25.000 fps
Standard : PAL
Color space : YUV
Chroma subsampling : 4:2:0
Bit depth : 8 bits
Scan type : Progressive
Bits/(Pixel*Frame) : 0.241
Stream size : 239 MiB (88%)
Writing library : Lavc51.40.4
Audio #1
ID : 1
Format : MPEG Audio
Format version : Version 1
Format profile : Layer 3
Mode : Joint stereo
Mode extension : MS Stereo
Codec ID : 55
Codec ID/Hint : MP3
Duration : 13mn 20s
Bit rate mode : Constant
Bit rate : 320 Kbps
Channel(s) : 2 channels
Sampling rate : 48.0 KHz
Stream size : 30.6 MiB (11%)
Alignment : Aligned on interleaves
Interleave, duration : 24 ms (0.60 video frame)
Writing library : LAME3.97


Výpis kvality druhé část:

Format : AVI
Format/Info : Audio Video Interleave
File size : 355 MiB
Duration : 17mn 31s
Overall bit rate : 2 834 Kbps
Writing application : Lavf51.12.1
Video #0
ID : 0
Format : MPEG-4 Visual
Format profile : Simple@L1
Format settings, BVOP : No
Format settings, QPel : No
Format settings, GMC : No warppoints
Format settings, Matrix : Default (H.263)
Codec ID : divx
Codec ID/Info : Mainly used by Google
Codec ID/Hint : DivX
Duration : 17mn 31s
Bit rate : 2 501 Kbps
Width : 720 pixels
Height : 576 pixels
Display aspect ratio : 5:4
Frame rate : 25.000 fps
Standard : PAL
Color space : YUV
Chroma subsampling : 4:2:0
Bit depth : 8 bits
Scan type : Progressive
Bits/(Pixel*Frame) : 0.241
Stream size : 314 MiB (88%)
Writing library : Lavc51.40.4
Audio #1
ID : 1
Format : MPEG Audio
Format version : Version 1
Format profile : Layer 3
Mode : Joint stereo
Mode extension : MS Stereo
Codec ID : 55
Codec ID/Hint : MP3
Duration : 17mn 31s
Bit rate mode : Constant
Bit rate : 320 Kbps
Channel(s) : 2 channels
Sampling rate : 48.0 KHz
Stream size : 40.1 MiB (11%)
Alignment : Aligned on interleaves
Interleave, duration : 24 ms (0.60 video frame)
Writing library : LAME3.97



fastshare
Pouze Registrovaní uživatelé mohou prohlížet odkazy v tagu code! Registrujte se anebo se Přihlašte na fórum.

hellshare
Pouze Registrovaní uživatelé mohou prohlížet odkazy v tagu code! Registrujte se anebo se Přihlašte na fórum.

_________________
Obrázek
Jak předejít infarktu?Poslat do řiti každýho dřív,než Tě nasere,,,


Nahoru 
 Profil  
 
Zobrazit příspěvky za předchozí:  Seřadit podle  
 
Odeslat nové téma Odpovědět na téma  [ Příspěvek: 1 ] 

Obsah fóra » Filmy download » Pro děti » CZ/SK dubbing


 
Nemůžete zakládat nová témata v tomto fóru
Nemůžete odpovídat v tomto fóru
Nemůžete upravovat své příspěvky v tomto fóru
Nemůžete mazat své příspěvky v tomto fóru
Nemůžete přikládat soubory v tomto fóru

Hledat:
Přejít na:  







TOPlist
Český překlad – phpBB.cz
Karma functions powered by Karma MOD © 2007, 2009 m157y
phpBB SEO



..:: Žádný ze zobrazených souborů, které můžete nalézt na tomto fóru, nejsou umístěny na tomto serveru. Autoři stránky nenesou zodpovědnost za příspěvky odeslané užívateli,ani za jejich další akce,které by mohli vést k porušování zákonů. Za své příspěvky zodpovídají uživatelé. Nepoužívejte tyto stránky k distribuci a nebo k downloadu jakýchkoliv materiálů, ke kterým nemáte legální oprávnění a nebo licenci ::..