Vítejte na stránkách . Klikněte zde pro registraci

Uživatelské jméno:   Heslo:   Pamätat si ma  Skrýt můj online stav 
Registrovat    Přihlásit se    Fórum    Hledat    FAQ
Bannery     Kontakt   


Informační Panel

:welcome:




www.centralwar.eu
www.centralwar.eu

Obsah fóra » Filmy download » Pro děti » CZ/SK dubbing


Pravidla fóra


1.Vkládejte pouze filmy pro děti
2.Téma musí obsahovat náhled obalu nebo screen(pokud obal není k dohledání na netu)
3.Informace (kvalita filmu,menu,titulky,dubbing,atd..)
4.Základní info o filmu (CSFD,IMDb)
5.Odkaz na CSFD (nově dávat do code)
6.Odkazy vedoucí mimo forum dávat do code
7.Heslo (pokud je) do code
8.Nezakládat duplicitní témata-používat tlačítko hledat
9.Obrázky vkládat do IMG
10.Název příspěvku musí obsahovat český i anglický název a rok jeho vydání-ten dávat do závorky!


Server STORAGE přešel pod server KICKLOAD,takže,v případě,že najdete nějaký mrtvý link Storage,prosím,nahlaste nám toto..děkujeme za pochopení



Odeslat nové téma Odpovědět na téma  [ Příspěvků: 3 ] 
Autor Zpráva
 Předmět příspěvku: Hledá se Dory / Finding Dory (2016)
 Příspěvek Napsal: 26 říj 2016, 19:04 
Offline
Registrovaní uživatelé

Registrován: 29 bře 2015, 15:33
ID Užívateľa: 65221

Bydliště: Slovensko
Online: 2d 18h 38m 33s
Poďakoval: 1 x
Obdržal: 99 x


Částka:
9,256.20



Karma: 0


Hledá se Dory / Finding Dory (2016)

Hleda.se.Dory.2016.BRRip.720p.AC3.CZ

Obrázek

Pouze Registrovaní uživatelé mohou prohlížet odkazy v tagu code! Registrujte se anebo se Přihlašte na fórum.


DABING: Česky

TITULKY : Česke forced

KVALITA:

Pouze Registrovaní uživatelé mohou prohlížet odkazy v tagu code! Registrujte se anebo se Přihlašte na fórum.


DOWNLOAD:


Pouze Registrovaní uživatelé mohou prohlížet odkazy v tagu code! Registrujte se anebo se Přihlašte na fórum.


HESLO NA ROZBALENIE JE:
Pouze Registrovaní uživatelé mohou prohlížet odkazy v tagu code! Registrujte se anebo se Přihlašte na fórum.


Linky na fastshare , webshare a uloz.to su navzajom kombinovatelne.


Naposledy upravil Stanley dne 27 lis 2016, 20:28, celkově upraveno 3
Smazány mrtvé linky


Nahoru 
 Profil  
 
 Předmět příspěvku: Hledá se Dory / Finding Dory (2016)
 Příspěvek Napsal: 30 lis 2016, 21:57 
Offline
Registrovaní uživatelé
Uživatelský avatar

Registrován: 23 kvě 2010, 09:37
ID Užívateľa: 38343

Online: 65d 18h 4m 46s
Poďakoval: 1 x
Obdržal: 2 x


Částka:
21,751.20



Karma: 0


Obrázek
Pouze Registrovaní uživatelé mohou prohlížet odkazy v tagu code! Registrujte se anebo se Přihlašte na fórum.

Pouze Registrovaní uživatelé mohou prohlížet odkazy v tagu code! Registrujte se anebo se Přihlašte na fórum.

ObrázekČESKÝ + SLOVENSKÝ DABING
Pouze Registrovaní uživatelé mohou prohlížet odkazy v tagu code! Registrujte se anebo se Přihlašte na fórum.

Pouze Registrovaní uživatelé mohou prohlížet odkazy v tagu code! Registrujte se anebo se Přihlašte na fórum.

Obrázek


Naposledy upravil Stanley dne 28 led 2017, 19:42, celkově upraveno 2
Smazány mrtvé linky


Nahoru 
 Profil  
 
 Předmět příspěvku: Hledá se Dory / Finding Dory (2016)
 Příspěvek Napsal: 10 zář 2018, 15:22 
Offline
Registrovaní uživatelé

Registrován: 27 led 2016, 20:28
ID Užívateľa: 65951

Online: 7d 54m 39s
Poďakoval: 0 x
Obdržal: 0 x


Částka:
2,498.40



Karma: 0


Hľadá sa Dory / Finding Dory (2016)
Video/Zdroj: DVDRip
Audio: SK 2ch

Obrázek

CSFD / IMDB
Pouze Registrovaní uživatelé mohou prohlížet odkazy v tagu code! Registrujte se anebo se Přihlašte na fórum.


INFO
Citace:
Format : AVI
File size : 1 018 MiB
Duration : 1 h 37 min
Overall bit rate : 1 467 kb/s

Video
Format : MPEG-4 Visual
Format profile : Simple@L1
Format settings, Matrix : Default (H.263)
Codec ID/Hint : DivX 4
Duration : 1 h 37 min
Bit rate : 1 198 kb/s
Width : 720 pixels
Height : 400 pixels
Display aspect ratio : 16:9
Frame rate : 23.976 (23976/1000) FPS
Color space : YUV
Chroma subsampling : 4:2:0
Bit depth : 8 bits
Scan type : Progressive
Compression mode : Lossy
Bits/(Pixel*Frame) : 0.174
Stream size : 832 MiB (82%)

Audio
Format : MPEG Audio
Mode extension : MS Stereo
Codec ID : 55
Codec ID/Hint : MP3
Duration : 1 h 37 min
Bit rate mode : Constant
Bit rate : 256 kb/s
Channel(s) : 2 channels
Sampling rate : 48.0 kHz
Compression mode : Lossy
Stream size : 178 MiB (17%)
Alignment : Aligned on interleaves
Interleave, duration : 24 ms (0.58 video frame)
Interleave, preload duratio : 72 ms


Fastshare
Pouze Registrovaní uživatelé mohou prohlížet odkazy v tagu code! Registrujte se anebo se Přihlašte na fórum.


Nahoru 
 Profil  
 
Zobrazit příspěvky za předchozí:  Seřadit podle  
 
Odeslat nové téma Odpovědět na téma  [ Příspěvků: 3 ] 

Obsah fóra » Filmy download » Pro děti » CZ/SK dubbing


 
Nemůžete zakládat nová témata v tomto fóru
Nemůžete odpovídat v tomto fóru
Nemůžete upravovat své příspěvky v tomto fóru
Nemůžete mazat své příspěvky v tomto fóru
Nemůžete přikládat soubory v tomto fóru

Hledat:
Přejít na:  







TOPlist
Český překlad – phpBB.cz
Karma functions powered by Karma MOD © 2007, 2009 m157y
phpBB SEO



..:: Žádný ze zobrazených souborů, které můžete nalézt na tomto fóru, nejsou umístěny na tomto serveru. Autoři stránky nenesou zodpovědnost za příspěvky odeslané užívateli,ani za jejich další akce,které by mohli vést k porušování zákonů. Za své příspěvky zodpovídají uživatelé. Nepoužívejte tyto stránky k distribuci a nebo k downloadu jakýchkoliv materiálů, ke kterým nemáte legální oprávnění a nebo licenci ::..