Vítejte na stránkách . Klikněte zde pro registraci

Uživatelské jméno:   Heslo:   Pamätat si ma  Skrýt můj online stav 
Registrovat    Přihlásit se    Fórum    Hledat    FAQ
Bannery     Kontakt   


Informační Panel

:welcome:




www.centralwar.eu
www.centralwar.eu

Obsah fóra » Filmy download » Pro děti » CZ/SK dubbing


Pravidla fóra


1.Vkládejte pouze filmy pro děti
2.Téma musí obsahovat náhled obalu nebo screen(pokud obal není k dohledání na netu)
3.Informace (kvalita filmu,menu,titulky,dubbing,atd..)
4.Základní info o filmu (CSFD,IMDb)
5.Odkaz na CSFD (nově dávat do code)
6.Odkazy vedoucí mimo forum dávat do code
7.Heslo (pokud je) do code
8.Nezakládat duplicitní témata-používat tlačítko hledat
9.Obrázky vkládat do IMG
10.Název příspěvku musí obsahovat český i anglický název a rok jeho vydání-ten dávat do závorky!


Server STORAGE přešel pod server KICKLOAD,takže,v případě,že najdete nějaký mrtvý link Storage,prosím,nahlaste nám toto..děkujeme za pochopení



Odeslat nové téma Odpovědět na téma  [ Příspěvků: 2 ] 
Autor Zpráva
 Předmět příspěvku: Alenka v říši divů: Za zrcadlem / Alice in Wonderl... (2016)
 Příspěvek Napsal: 30 zář 2016, 09:22 
Offline
Registrovaní uživatelé

Registrován: 29 bře 2015, 15:33
ID Užívateľa: 65221

Bydliště: Slovensko
Online: 2d 19h 1m
Poďakoval: 1 x
Obdržal: 99 x


Částka:
9,316.30



Karma: 0


Alenka v říši divů: Za zrcadlem / Alice in Wonderland 2 (2016)

Alenka.v.říši.divů.Za.zrcadlem.2016.BlurayRip.720.p.AC3.CZ

Obrázek

Pouze Registrovaní uživatelé mohou prohlížet odkazy v tagu code! Registrujte se anebo se Přihlašte na fórum.


DABING: Česky 5.1

KVALITA:

Pouze Registrovaní uživatelé mohou prohlížet odkazy v tagu code! Registrujte se anebo se Přihlašte na fórum.


DOWNLOAD:


Pouze Registrovaní uživatelé mohou prohlížet odkazy v tagu code! Registrujte se anebo se Přihlašte na fórum.


Pouze Registrovaní uživatelé mohou prohlížet odkazy v tagu code! Registrujte se anebo se Přihlašte na fórum.


HESLO NA ROZBALENIE JE:
Pouze Registrovaní uživatelé mohou prohlížet odkazy v tagu code! Registrujte se anebo se Přihlašte na fórum.


Linky na FASTSHARE NIESU kombinovatelne z linkamy z WEBSHARE a ULOZ.TO.
Linky WEBSHARE a Uloz.to su navzajom medzi sebou kombinovatelne.


Naposledy upravil Stanley dne 07 zář 2018, 20:20, celkově upraveno 3
Smazány mrtvé linky


Nahoru 
 Profil  
 
 Předmět příspěvku: Alenka v říši divů: Za zrcadlem / Alice in Wonderl... (2016)
 Příspěvek Napsal: 07 zář 2018, 11:18 
Offline
Registrovaní uživatelé

Registrován: 27 led 2016, 20:28
ID Užívateľa: 65951

Online: 9d 22h 40m 59s
Poďakoval: 0 x
Obdržal: 0 x


Částka:
3,159.20



Karma: 0


Alenka v říši divů: Za zrcadlem / Alice in Wonderland: Through the Looking Glass (2016)
Video/Zdroj: BDRip
Audio: CZ AC-3 5.1ch

Obrázek

CSFD / IMDB
Pouze Registrovaní uživatelé mohou prohlížet odkazy v tagu code! Registrujte se anebo se Přihlašte na fórum.


INFO
Citace:
Format : AVI
Format/Info : Audio Video Interleave
File size : 1.40 GiB
Duration : 1h 52mn
Overall bit rate : 1 771 Kbps

Video
Format : MPEG-4 Visual
Format profile : Advanced Simple@L5
Format settings, Matrix : Default (H.263)
Codec ID/Hint : XviD
Duration : 1h 52mn
Bit rate : 1 314 Kbps
Width : 720 pixels
Height : 384 pixels
Display aspect ratio : 1.85:1
Frame rate : 23.976 (23976/1000) fps
Color space : YUV
Chroma subsampling : 4:2:0
Bit depth : 8 bits
Scan type : Progressive
Compression mode : Lossy
Bits/(Pixel*Frame) : 0.198
Stream size : 1.04 GiB (74%)

Audio
Format : AC-3
Duration : 1h 52mn
Bit rate mode : Constant
Bit rate : 448 Kbps
Channel(s) : 6 channels
Channel positions : Front: L C R, Side: L R, LFE
Sampling rate : 48.0 KHz
Frame rate : 31.250 fps (1536 spf)
Compression mode : Lossy
Stream size : 362 MiB (25%)
Alignment : Split accross interleaves
Interleave, duration : 42 ms (1.00 video frame)
Interleave, preload duratio : 500 ms


Fastshare
Pouze Registrovaní uživatelé mohou prohlížet odkazy v tagu code! Registrujte se anebo se Přihlašte na fórum.


Nahoru 
 Profil  
 
Zobrazit příspěvky za předchozí:  Seřadit podle  
 
Odeslat nové téma Odpovědět na téma  [ Příspěvků: 2 ] 

Obsah fóra » Filmy download » Pro děti » CZ/SK dubbing


 
Nemůžete zakládat nová témata v tomto fóru
Nemůžete odpovídat v tomto fóru
Nemůžete upravovat své příspěvky v tomto fóru
Nemůžete mazat své příspěvky v tomto fóru
Nemůžete přikládat soubory v tomto fóru

Hledat:
Přejít na:  







TOPlist
Český překlad – phpBB.cz
Karma functions powered by Karma MOD © 2007, 2009 m157y
phpBB SEO



..:: Žádný ze zobrazených souborů, které můžete nalézt na tomto fóru, nejsou umístěny na tomto serveru. Autoři stránky nenesou zodpovědnost za příspěvky odeslané užívateli,ani za jejich další akce,které by mohli vést k porušování zákonů. Za své příspěvky zodpovídají uživatelé. Nepoužívejte tyto stránky k distribuci a nebo k downloadu jakýchkoliv materiálů, ke kterým nemáte legální oprávnění a nebo licenci ::..