Vítejte na stránkách . Klikněte zde pro registraci

Uživatelské jméno:   Heslo:   Pamätat si ma  Skrýt můj online stav 
Registrovat    Přihlásit se    Fórum    Hledat    FAQ
Bannery     Kontakt   


Informační Panel

wel




www.centralwar.eu
www.centralwar.eu

Obsah fóra » Filmy download » Pro děti » CZ/SK dubbing


Pravidla fóra


1.Vkládejte pouze filmy pro děti
2.Téma musí obsahovat náhled obalu nebo screen(pokud obal není k dohledání na netu)
3.Informace (kvalita filmu,menu,titulky,dubbing,atd..)
4.Základní info o filmu (CSFD,IMDb)
5.Odkaz na CSFD (nově dávat do code)
6.Odkazy vedoucí mimo forum dávat do code
7.Heslo (pokud je) do code
8.Nezakládat duplicitní témata-používat tlačítko hledat
9.Obrázky vkládat do IMG
10.Název příspěvku musí obsahovat český i anglický název a rok jeho vydání-ten dávat do závorky!


Server STORAGE přešel pod server KICKLOAD,takže,v případě,že najdete nějaký mrtvý link Storage,prosím,nahlaste nám toto..děkujeme za pochopení



Odeslat nové téma Odpovědět na téma  [ Příspěvků: 3 ] 
Autor Zpráva
 Předmět příspěvku: Myšák Stuart Little 1,2,3 (2000-2005)
 Příspěvek Napsal: 28 kvě 2011, 10:10 
Offline
Superuploader

Registrován: 28 lis 2008, 20:03
ID Užívateľa: 22283

Online: 26d 17h 4m 33s
Poďakoval: 0 x
Obdržal: 3 x


Částka:
42,332.95



Karma: 3



Medals: 3
Myšák Stuart Little
Stuart Little (1999)
Jazyk : CZ + SK

Obrázek
AKTUÁLNĚ - 61%
Obrázek
Pouze Registrovaní uživatelé mohou prohlížet odkazy v tagu code! Registrujte se anebo se Přihlašte na fórum.

Citace:
Obsah:
Dobrodružný / Komedie / Rodinný / Fantasy

USA / Německo, 1999, 84 min
Režie: Rob Minkoff
Hrají: Michael J. Fox, Geena Davis, Hugh Laurie, Jonathan Lipnicki, Nathan Lane, Chazz Palminteri, Steve Zahn, David Alan Grier, Bruno Kirby, Jennifer Tilly, Jeffrey Jones, Allyce Beasley, Estelle Getty, Harold Gould, Julia Sweeney, Dabney Coleman, Jon Polito, Taylor Negron, Kimmy Robertson


Je chytrý, energický, vždycky ví jak na to a je to myšák. Littleovi se jednoho dne vydali do sirotčince vybrat malému Georgeovi brášku, místo klučíka ale přes upřímně míněnou radu, aby raději provedli adopci v rámci svého živočišného druhu, adoptovali myš. Malého myšího chlapíka s velkým srdcem, teniskami a kompletním šatníkem, který se v předimenzovaném světě snaží nalézt místo, jemuž se říká domov. V tom je mu překážkou nejen jeho nejasný původ, ale také kocour Snížek, který se jen těžko vyrovnává s faktem, že by byl domácím mazlíčkem myši, byť oblečené a mluvící lidskou řečí.

Obrázek

Obrázek
Citace:
General
Complete name : Z:\DVD UPLOAD\Myšák Stuart Little (1999).avi
Format : AVI
Format/Info : Audio Video Interleave
File size : 867 MiB
Duration : 1h 21mn
Overall bit rate : 1 494 Kbps
Writing application : VirtualDubMod 1.5.10.2 (build 2540/release)
Writing library : VirtualDubMod build 2540/release

Video
ID : 0
Format : MPEG-4 Visual
Format profile : Advanced Simple@L5
Format settings, BVOP : Yes
Format settings, QPel : No
Format settings, GMC : No warppoints
Format settings, Matrix : Default (H.263)
Muxing mode : Packed bitstream
Codec ID : XVID
Codec ID/Hint : XviD
Duration : 1h 21mn
Bit rate : 1 232 Kbps
Width : 672 pixels
Height : 352 pixels
Display aspect ratio : 1.909
Frame rate : 25.000 fps
Color space : YUV
Chroma subsampling : 4:2:0
Bit depth : 8 bits
Scan type : Progressive
Bits/(Pixel*Frame) : 0.208
Stream size : 715 MiB (82%)
Writing library : XviD 1.0.3 (UTC 2004-12-20)

Audio #1
ID : 1
Format : MPEG Audio
Format version : Version 1
Format profile : Layer 3
Mode : Joint stereo
Codec ID : 55
Codec ID/Hint : MP3
Duration : 1h 21mn
Bit rate mode : Constant
Bit rate : 128 Kbps
Channel(s) : 2 channels
Sampling rate : 48.0 KHz
Stream size : 74.3 MiB (9%)
Alignment : Aligned on interleaves
Interleave, duration : 400 ms (10.00 video frames)
Interleave, preload duration : 504 ms

Audio #2
ID : 2
Format : MPEG Audio
Format version : Version 1
Format profile : Layer 3
Mode : Joint stereo
Codec ID : 55
Codec ID/Hint : MP3
Duration : 1h 21mn
Bit rate mode : Constant
Bit rate : 128 Kbps
Channel(s) : 2 channels
Sampling rate : 48.0 KHz
Stream size : 74.3 MiB (9%)
Alignment : Aligned on interleaves
Interleave, duration : 400 ms (10.00 video frames)
Interleave, preload duration : 504 ms


Obrázek
Pouze Registrovaní uživatelé mohou prohlížet odkazy v tagu code! Registrujte se anebo se Přihlašte na fórum.


Bez hesla
Přidán záznam na opravu dat 5%


Nahoru 
 Profil  
 
 Předmět příspěvku: Myšák Stuart Little 1,2,3 (2000-2005)
 Příspěvek Napsal: 28 kvě 2011, 10:29 
Offline
Superuploader

Registrován: 28 lis 2008, 20:03
ID Užívateľa: 22283

Online: 26d 17h 4m 33s
Poďakoval: 0 x
Obdržal: 3 x


Částka:
42,332.95



Karma: 3



Medals: 3
Myšák Stuart Little 2
Stuart Little 2 (2002)
Jazyk : CZ + SK

Obrázek
AKTUÁLNĚ - 54%
Obrázek
Pouze Registrovaní uživatelé mohou prohlížet odkazy v tagu code! Registrujte se anebo se Přihlašte na fórum.

Citace:
Obsah:
Komedie / Rodinný / Fantasy

USA, 2002, 78 min
Režie: Rob Minkoff
Hrají: Michael J. Fox, Geena Davis, Hugh Laurie, Jonathan Lipnicki, Nathan Lane, Melanie Griffith, James Woods, Steve Zahn, Brad Garrett, Rachael Harris, Marc John Jefferies


Rodinný snímek o mluvícím myšákovi, kterého adoptovala rodina Littleových, se stal jedním z kasovních hitů roku 1999. Film vydělal jenom v USA přes 130 milionů dolarů, a tak není divu, že producenti připravili pokračování. Postavička Stuarta Littlea, myšáka s dokonalým šatníkem a gentlemanským vystupováním, má svou knižní předlohu v dětské knize E. B. Whitea. K hrdinům známým již z prvního filmu, kterými jsou především animovaný bílý myšák Stuart (v originále mluví známá hollywoodská hvězda Michael J. Fox, který mu propůjčí hlas i v druhém díle, česky nadaboval Martin Dejdar) a dále rodina Littleových (Geena Davis a Hugh Laurie), přibude v druhém díle nová postava ptáčka Margola (v originále mu pravděpodobně propůjčí hlas Melanie Griffith). Ten se stane objektem Stuartova milostného vzplanutí.

Obrázek

Obrázek
Citace:
General
Complete name : Z:\DVD UPLOAD\Myšák Stuart Little 2 (2002).avi
Format : AVI
Format/Info : Audio Video Interleave
File size : 867 MiB
Duration : 1h 14mn
Overall bit rate : 1 627 Kbps
Writing application : VirtualDubMod 1.5.10.2 (build 2540/release)
Writing library : VirtualDubMod build 2540/release

Video
ID : 0
Format : MPEG-4 Visual
Format profile : Advanced Simple@L5
Format settings, BVOP : Yes
Format settings, QPel : No
Format settings, GMC : No warppoints
Format settings, Matrix : Default (H.263)
Muxing mode : Packed bitstream
Codec ID : XVID
Codec ID/Hint : XviD
Duration : 1h 14mn
Bit rate : 1 365 Kbps
Width : 672 pixels
Height : 336 pixels
Display aspect ratio : 2.000
Frame rate : 25.000 fps
Color space : YUV
Chroma subsampling : 4:2:0
Bit depth : 8 bits
Scan type : Progressive
Bits/(Pixel*Frame) : 0.242
Stream size : 728 MiB (84%)
Writing library : XviD 1.0.3 (UTC 2004-12-20)

Audio #1
ID : 1
Format : MPEG Audio
Format version : Version 1
Format profile : Layer 3
Mode : Joint stereo
Codec ID : 55
Codec ID/Hint : MP3
Duration : 1h 14mn
Bit rate mode : Constant
Bit rate : 128 Kbps
Channel(s) : 2 channels
Sampling rate : 48.0 KHz
Stream size : 68.3 MiB (8%)
Alignment : Aligned on interleaves
Interleave, duration : 400 ms (10.00 video frames)
Interleave, preload duration : 504 ms

Audio #2
ID : 2
Format : MPEG Audio
Format version : Version 1
Format profile : Layer 3
Mode : Joint stereo
Codec ID : 55
Codec ID/Hint : MP3
Duration : 1h 14mn
Bit rate mode : Constant
Bit rate : 128 Kbps
Channel(s) : 2 channels
Sampling rate : 48.0 KHz
Stream size : 68.3 MiB (8%)
Alignment : Aligned on interleaves
Interleave, duration : 400 ms (10.00 video frames)
Interleave, preload duration : 504 ms


Obrázek
Pouze Registrovaní uživatelé mohou prohlížet odkazy v tagu code! Registrujte se anebo se Přihlašte na fórum.


Bez hesla
Přidán záznam na opravu dat 5%


Naposledy upravil Stanley dne 27 zář 2013, 13:26, celkově upraveno 1
Přidána ikonka serveru


Nahoru 
 Profil  
 
 Předmět příspěvku: Myšák Stuart Little 1,2,3 (2000-2005)
 Příspěvek Napsal: 28 kvě 2011, 10:37 
Offline
Superuploader

Registrován: 28 lis 2008, 20:03
ID Užívateľa: 22283

Online: 26d 17h 4m 33s
Poďakoval: 0 x
Obdržal: 3 x


Částka:
42,332.95



Karma: 3



Medals: 3
Myšák Stuart Little 3
Stuart Little 3: Call of the Wild (2005)

Obrázek
AKTUÁLNĚ - 22%
Obrázek
Pouze Registrovaní uživatelé mohou prohlížet odkazy v tagu code! Registrujte se anebo se Přihlašte na fórum.

Citace:
Obsah:
Animovaný / Rodinný / Fantasy / Komedie

USA, 2005, 72 min
Režie: Audu Paden
Hrají: Geena Davis, Wayne Brady, Michael J. Fox, Hugh Laurie, Peter MacNicol, Virginia Madsen, Rino Romano


Sbalte si svá zavazadla a naložte svou tábornickou výbavu. Je čas vyslyšet myšákovo volání! V úžasném animovaném dobrodružství MYŠÁK STUART LITTLE 3 se myšák se svými přáteli vydává daleko od města vstříc neuvěřitelným zážitkům v divočině. Na jednu věc ale jejich vybavení nestačí. V okolních lesích údajně žije velké a zlé zvíře! Zatímco se Stuart učí od trochu divokého skunka jménem Reeko základní pravidla přežití, věčně vystrašená kočička Snížek využívá ochrany světem protřelého toulavého Montyho. MYŠÁK STUART LITTLE 3 je tak velká legrace, jako je svět kolem nás!

Obrázek

Obrázek
Citace:
General
Complete name : Z:\DVD UPLOAD\Myšák Stuart Little 3 (2005).avi
Format : AVI
Format/Info : Audio Video Interleave
File size : 702 MiB
Duration : 1h 12mn
Overall bit rate : 1 359 Kbps
Writing application : VirtualDubMod 1.5.10.1 (build 2439/release)
Writing library : VirtualDubMod build 2439/release

Video
ID : 0
Format : MPEG-4 Visual
Format profile : Advanced Simple@L5
Format settings, BVOP : Yes
Format settings, QPel : No
Format settings, GMC : No warppoints
Format settings, Matrix : Default (H.263)
Muxing mode : Packed bitstream
Codec ID : XVID
Codec ID/Hint : XviD
Duration : 1h 12mn
Bit rate : 1 152 Kbps
Width : 608 pixels
Height : 336 pixels
Display aspect ratio : 16:9
Frame rate : 25.000 fps
Color space : YUV
Chroma subsampling : 4:2:0
Bit depth : 8 bits
Scan type : Progressive
Bits/(Pixel*Frame) : 0.226
Stream size : 595 MiB (85%)
Writing library : XviD 1.0.3 (UTC 2004-12-20)

Audio
ID : 1
Format : MPEG Audio
Format version : Version 1
Format profile : Layer 3
Mode : Dual mono
Codec ID : 55
Codec ID/Hint : MP3
Duration : 1h 12mn
Bit rate mode : Variable
Bit rate : 192 Kbps
Channel(s) : 2 channels
Sampling rate : 48.0 KHz
Stream size : 100 MiB (14%)
Alignment : Aligned on interleaves
Interleave, duration : 24 ms (0.60 video frame)
Interleave, preload duration : 95 ms
Writing library : LAME3.96r
Encoding settings : -m d -V 4 -q 3 -lowpass 19.5 --abr 192


Obrázek
Pouze Registrovaní uživatelé mohou prohlížet odkazy v tagu code! Registrujte se anebo se Přihlašte na fórum.


Bez hesla
Přidán záznam na opravu dat 5%


Naposledy upravil Stanley dne 27 zář 2013, 13:26, celkově upraveno 1
Přidána ikonka serveru


Nahoru 
 Profil  
 
Zobrazit příspěvky za předchozí:  Seřadit podle  
 
Odeslat nové téma Odpovědět na téma  [ Příspěvků: 3 ] 

Obsah fóra » Filmy download » Pro děti » CZ/SK dubbing


 
Nemůžete zakládat nová témata v tomto fóru
Nemůžete odpovídat v tomto fóru
Nemůžete upravovat své příspěvky v tomto fóru
Nemůžete mazat své příspěvky v tomto fóru
Nemůžete přikládat soubory v tomto fóru

Hledat:
Přejít na:  







cron
TOPlist
Český překlad – phpBB.cz
Karma functions powered by Karma MOD © 2007, 2009 m157y
phpBB SEO



..:: Žádný ze zobrazených souborů, které můžete nalézt na tomto fóru, nejsou umístěny na tomto serveru. Autoři stránky nenesou zodpovědnost za příspěvky odeslané užívateli,ani za jejich další akce,které by mohli vést k porušování zákonů. Za své příspěvky zodpovídají uživatelé. Nepoužívejte tyto stránky k distribuci a nebo k downloadu jakýchkoliv materiálů, ke kterým nemáte legální oprávnění a nebo licenci ::..