Vítejte na stránkách . Klikněte zde pro registraci

Uživatelské jméno:   Heslo:   Pamätat si ma  Skrýt můj online stav 
Registrovat    Přihlásit se    Fórum    Hledat    FAQ
Bannery     Kontakt   


Informační Panel

:welcome:




www.centralwar.eu
www.centralwar.eu

Obsah fóra » Filmy download » České - Slovenské filmy » Filmy vo formáte DivX, AVI




Odeslat nové téma Odpovědět na téma  [ Příspěvek: 1 ] 
Autor Zpráva
 Předmět příspěvku: Císařův pekař - Pekařův císař (1951)
 Příspěvek Napsal: 13 zář 2018, 15:50 
Offline
Registrovaní uživatelé

Registrován: 27 led 2016, 20:28
ID Užívateľa: 65951

Online: 6d 11h 24m 41s
Poďakoval: 0 x
Obdržal: 0 x


Částka:
2,338.40



Karma: 0


Císařův pekař - Pekařův císař (1951)
Video/Zdroj: DVDRip

Obrázek

CSFD / IMDB
Pouze Registrovaní uživatelé mohou prohlížet odkazy v tagu code! Registrujte se anebo se Přihlašte na fórum.


INFO
Citace:
Format : AVI
File size : 2.64 GiB
Duration : 2 h 23 min
Overall bit rate : 2 636 kb/s

Video
Format : MPEG-4 Visual
Format profile : Simple@L1
Format settings, Matrix : Default (H.263)
Codec ID/Hint : DivX 5
Duration : 2 h 23 min
Bit rate : 2 497 kb/s
Width : 720 pixels
Height : 576 pixels
Display aspect ratio : 4:3
Frame rate : 25.000 FPS
Standard : PAL
Color space : YUV
Chroma subsampling : 4:2:0
Bit depth : 8 bits
Scan type : Progressive
Compression mode : Lossy
Bits/(Pixel*Frame) : 0.241
Stream size : 2.50 GiB (95%)

Audio
Format : MPEG Audio
Mode extension : MS Stereo
Codec ID : 55
Codec ID/Hint : MP3
Duration : 2 h 23 min
Bit rate mode : Constant
Bit rate : 128 kb/s
Channel(s) : 2 channels
Sampling rate : 44.1 kHz
Compression mode : Lossy
Stream size : 131 MiB (5%)
Alignment : Aligned on interleaves
Interleave, duration : 26 ms (0.65 video frame)
Interleave, preload duratio : 26 ms


Fastshare
Pouze Registrovaní uživatelé mohou prohlížet odkazy v tagu code! Registrujte se anebo se Přihlašte na fórum.


Nahoru 
 Profil  
 
Zobrazit příspěvky za předchozí:  Seřadit podle  
 
Odeslat nové téma Odpovědět na téma  [ Příspěvek: 1 ] 

Obsah fóra » Filmy download » České - Slovenské filmy » Filmy vo formáte DivX, AVI


 
Nemůžete zakládat nová témata v tomto fóru
Nemůžete odpovídat v tomto fóru
Nemůžete upravovat své příspěvky v tomto fóru
Nemůžete mazat své příspěvky v tomto fóru
Nemůžete přikládat soubory v tomto fóru

Hledat:
Přejít na:  







cron
TOPlist
Český překlad – phpBB.cz
Karma functions powered by Karma MOD © 2007, 2009 m157y
phpBB SEO



..:: Žádný ze zobrazených souborů, které můžete nalézt na tomto fóru, nejsou umístěny na tomto serveru. Autoři stránky nenesou zodpovědnost za příspěvky odeslané užívateli,ani za jejich další akce,které by mohli vést k porušování zákonů. Za své příspěvky zodpovídají uživatelé. Nepoužívejte tyto stránky k distribuci a nebo k downloadu jakýchkoliv materiálů, ke kterým nemáte legální oprávnění a nebo licenci ::..