Vítejte na stránkách . Klikněte zde pro registraci

Uživatelské jméno:   Heslo:   Pamätat si ma  Skrýt můj online stav 
Registrovat    Přihlásit se    Fórum    Hledat    FAQ
Bannery     Kontakt   


Informační Panel

:welcome:




www.centralwar.eu
www.centralwar.eu

Obsah fóra » Filmy download » České - Slovenské filmy » Filmy vo formáte DivX, AVI




Odeslat nové téma Odpovědět na téma  [ Příspěvků: 2 ] 
Autor Zpráva
 Předmět příspěvku: Jak básníkům chutná život (1987)
 Příspěvek Napsal: 29 dub 2011, 19:31 
Offline
Superuploader

Registrován: 28 lis 2008, 21:03
ID Užívateľa: 22283

Online: 26d 17h 4m 33s
Poďakoval: 0 x
Obdržal: 3 x


Částka:
42,212.95



Karma: 3



Medals: 3
Jak básníkům chutná život (1987)
Obrázek

Obrázek
Pouze Registrovaní uživatelé mohou prohlížet odkazy v tagu code! Registrujte se anebo se Přihlašte na fórum.

Citace:
Obsah:
Komedie / Romantický

Československo, 1987, 102 min
Režie: Dušan Klein
Hrají: Pavel Kříž, David Matásek, Eva Vejmělková, Jana Hlaváčová, Rudolf Hrušínský, Míla Myslíková, Blažena Holišová, Karel Roden, Václav Svoboda, Joseph Dielle, Eva Jeníčková, Pavel Zedníček, Josef Somr...


Zatímco Kendy se jako pomocný režisér vrací do rodného města natáčet s televizním štábem třináctidílný seriál, Štěpán Šafránek, vybaven po promoci maminčinými radami, nastupuje na své první místo - na internu zdejší nemocnice. Jeho nepřizpůsobivost místním poměrům a smysl pro etiku zvoleného povolání však příliš nevyhovuje ostatním už zaběhnutým kolegům. Zatímco ti se škodolibě baví jeho horlivostí a zodpovědností, Štěpán má stále větší problémy s nadřízenými, až je nakonec přesunut na všemi odmítané místo venkovského obvodního lékaře. V Bezdíkově však potkává novou, snad už trvalou a opětovanou lásku, s níž se posléze rozhodne žít a pracovat v severních Čechách.

Obrázek

Obrázek
Citace:
General
Complete name : Z:\DVD UPLOAD\Jak básníkům chutná život (1987).avi
Format : AVI
Format/Info : Audio Video Interleave
File size : 830 MiB
Duration : 1h 41mn
Overall bit rate : 1 140 Kbps

Video
ID : 0
Format : MPEG-4 Visual
Format settings, BVOP : Yes
Format settings, QPel : No
Format settings, GMC : No warppoints
Format settings, Matrix : Default (H.263)
Muxing mode : Packed bitstream
Codec ID : DX50
Codec ID/Hint : DivX 5
Duration : 1h 41mn
Bit rate : 1 006 Kbps
Width : 640 pixels
Height : 480 pixels
Display aspect ratio : 4:3
Frame rate : 25.000 fps
Color space : YUV
Chroma subsampling : 4:2:0
Bit depth : 8 bits
Scan type : Progressive
Bits/(Pixel*Frame) : 0.131
Stream size : 732 MiB (88%)
Title : Video
Writing library : DivX 5.2.1 Alpha (UTC 2004-09-08)

Audio
ID : 1
Format : MPEG Audio
Format version : Version 1
Format profile : Layer 3
Mode : Joint stereo
Mode extension : MS Stereo
Codec ID : 55
Codec ID/Hint : MP3
Duration : 1h 41mn
Bit rate mode : Variable
Bit rate : 128 Kbps
Channel(s) : 2 channels
Sampling rate : 44.1 KHz
Stream size : 88.7 MiB (11%)
Alignment : Aligned on interleaves
Interleave, duration : 26 ms (0.65 video frame)
Interleave, preload duration : 117 ms
Title : Audio
Writing library : LAME3.92


Obrázek
Pouze Registrovaní uživatelé mohou prohlížet odkazy v tagu code! Registrujte se anebo se Přihlašte na fórum.


Bez hesla
Přidán záznam na opravu dat 5%


Nahoru 
 Profil  
 
 Předmět příspěvku: Jak básníkům chutná život (1987)
 Příspěvek Napsal: 26 pro 2012, 14:28 
Offline
Superuploader

Registrován: 28 lis 2008, 21:03
ID Užívateľa: 22283

Online: 26d 17h 4m 33s
Poďakoval: 0 x
Obdržal: 3 x


Částka:
42,212.95



Karma: 3



Medals: 3
Jak básníkům chutná život (1987) DVDRip DivX5 CZdabing

Obrázek
Obrázek
Pouze Registrovaní uživatelé mohou prohlížet odkazy v tagu code! Registrujte se anebo se Přihlašte na fórum.

INFO:
Format : AVI at 1 140 Kbps
Length : 830 MiB for 1h 41mn 47s 240ms

Video #0 : MPEG-4 Visual at 1 006 Kbps
Aspect : 640 x 480 (1.333) at 25.000 fps

Audio #0 : MPEG Audio at 128 Kbps
Infos : CZECH 2 channels, 44.1 KHz

Obrázek
Pouze Registrovaní uživatelé mohou prohlížet odkazy v tagu code! Registrujte se anebo se Přihlašte na fórum.


Naposledy upravil draha dne 21 bře 2013, 22:19, celkově upraveno 1
vymazány mrtvé linky


Nahoru 
 Profil  
 
Zobrazit příspěvky za předchozí:  Seřadit podle  
 
Odeslat nové téma Odpovědět na téma  [ Příspěvků: 2 ] 

Obsah fóra » Filmy download » České - Slovenské filmy » Filmy vo formáte DivX, AVI


 
Nemůžete zakládat nová témata v tomto fóru
Nemůžete odpovídat v tomto fóru
Nemůžete upravovat své příspěvky v tomto fóru
Nemůžete mazat své příspěvky v tomto fóru
Nemůžete přikládat soubory v tomto fóru

Hledat:
Přejít na:  







TOPlist
Český překlad – phpBB.cz
Karma functions powered by Karma MOD © 2007, 2009 m157y
phpBB SEO



..:: Žádný ze zobrazených souborů, které můžete nalézt na tomto fóru, nejsou umístěny na tomto serveru. Autoři stránky nenesou zodpovědnost za příspěvky odeslané užívateli,ani za jejich další akce,které by mohli vést k porušování zákonů. Za své příspěvky zodpovídají uživatelé. Nepoužívejte tyto stránky k distribuci a nebo k downloadu jakýchkoliv materiálů, ke kterým nemáte legální oprávnění a nebo licenci ::..