Vítejte na stránkách . Klikněte zde pro registraci

Uživatelské jméno:   Heslo:   Pamätat si ma  Skrýt můj online stav 
Registrovat    Přihlásit se    Fórum    Hledat    FAQ
Bannery     Kontakt   


Informační Panel

wel




www.centralwar.eu
www.centralwar.eu

Obsah fóra » Filmy download » HD filmy a jiné » HD filmy cz/sk




Odeslat nové téma Odpovědět na téma  [ Příspěvků: 2 ] 
Autor Zpráva
 Předmět příspěvku: Hitman: Agent 47 / Hitman: Agent 47 (2015)
 Příspěvek Napsal: 19 lis 2015, 12:06 
Offline
Registrovaní uživatelé

Registrován: 25 srp 2015, 12:35
ID Užívateľa: 65550

Online: 17d 14h 34m 56s
Poďakoval: 0 x
Obdržal: 4 x


Částka:
32,074.75



Karma: 5


Hitman: Agent 47 (2015)

RELEASE
Hitman.Agent.47.2015.1080p.BluRay.CZ.DTS.5.1-Hex
Hitman.Agent.47.2015.1080p.BluRay.AVC.DTS-HD.MA.7.1-Hex

Obrázek

ČSFD/IMDB
Pouze Registrovaní uživatelé mohou prohlížet odkazy v tagu code! Registrujte se anebo se Přihlašte na fórum.


AUDIO: CZ AC3 5.1, EN DTS 5.1
TITULKY: CZ, SK, EN

INFO
Pouze Registrovaní uživatelé mohou prohlížet odkazy v tagu code! Registrujte se anebo se Přihlašte na fórum.


DOWNLOAD
Pouze Registrovaní uživatelé mohou prohlížet odkazy v tagu code! Registrujte se anebo se Přihlašte na fórum.


Hitman.Agent.47.2015.1080p.BluRay.AVC.DTS-HD.MA.7.1-Hex
AUDIO: CZ AC3 5.1, EN DTS 7.1
TITULKY: CZ, SK, EN

INFO
Pouze Registrovaní uživatelé mohou prohlížet odkazy v tagu code! Registrujte se anebo se Přihlašte na fórum.


DOWNLOAD
Pouze Registrovaní uživatelé mohou prohlížet odkazy v tagu code! Registrujte se anebo se Přihlašte na fórum.


Naposledy upravil Stanley dne 15 led 2019, 07:05, celkově upraveno 3
Smazány mrtvé linky


Nahoru 
 Profil  
 
 Předmět příspěvku: Hitman: Agent 47 / Hitman: Agent 47 (2015)
 Příspěvek Napsal: 14 led 2019, 21:24 
Offline
Registrovaní uživatelé

Registrován: 27 led 2016, 20:28
ID Užívateľa: 65951

Online: 10d 5h 21m 49s
Poďakoval: 0 x
Obdržal: 0 x


Částka:
3,419.55



Karma: 0


Hitman: Agent 47 (2015)

Video/Zdroj: BluRay 1080p
Audio: CZ AC-3 5.1ch, EN DTS 5.1ch
Titulky: CZ, SK


Obrázek

CSFD / IMDB
Pouze Registrovaní uživatelé mohou prohlížet odkazy v tagu code! Registrujte se anebo se Přihlašte na fórum.


INFO
Citace:
Format : Matroska
Format version : Version 2
File size : 11.9 GiB
Duration : 1h 36mn
Overall bit rate : 17.7 Mbps

Video
Format : AVC
Format profile : High@L4.1
Duration : 1h 36mn
Bit rate : 15.4 Mbps
Width : 1 920 pixels
Height : 804 pixels
Display aspect ratio : 2.40:1
Frame rate mode : Constant
Frame rate : 23.976 fps
Color space : YUV
Chroma subsampling : 4:2:0
Bit depth : 8 bits
Scan type : Progressive
Bits/(Pixel*Frame) : 0.415
Stream size : 10.3 GiB (87%)

Audio #1
Format : AC-3
Duration : 1h 36mn
Bit rate mode : Constant
Bit rate : 448 Kbps
Channel(s) : 6 channels
Channel positions : Front: L C R, Side: L R, LFE
Sampling rate : 48.0 KHz
Bit depth : 16 bits
Compression mode : Lossy
Stream size : 309 MiB (3%)
Language : Czech
Default : Yes
Forced : No

Audio #2
Format : DTS
Duration : 1h 36mn
Bit rate mode : Constant
Bit rate : 1 509 Kbps
Channel(s) : 6 channels
Channel positions : Front: L C R, Side: L R, LFE
Sampling rate : 48.0 KHz
Bit depth : 24 bits
Compression mode : Lossy
Stream size : 1.01 GiB (9%)
Language : English
Default : No
Forced : No

Text #1
Format : UTF-8
Language : Czech
Default : No
Forced : No

Text #2
Format : UTF-8
Language : Slovak
Default : No
Forced : No


FASTSHARE

Pouze Registrovaní uživatelé mohou prohlížet odkazy v tagu code! Registrujte se anebo se Přihlašte na fórum.


Bez hesla. Balené bez kompresie. Pridaný záznam pre opravu dát 5%.


Nahoru 
 Profil  
 
Zobrazit příspěvky za předchozí:  Seřadit podle  
 
Odeslat nové téma Odpovědět na téma  [ Příspěvků: 2 ] 

Obsah fóra » Filmy download » HD filmy a jiné » HD filmy cz/sk


 
Nemůžete zakládat nová témata v tomto fóru
Nemůžete odpovídat v tomto fóru
Nemůžete upravovat své příspěvky v tomto fóru
Nemůžete mazat své příspěvky v tomto fóru
Nemůžete přikládat soubory v tomto fóru

Hledat:
Přejít na:  







TOPlist
Český překlad – phpBB.cz
Karma functions powered by Karma MOD © 2007, 2009 m157y
phpBB SEO



..:: Žádný ze zobrazených souborů, které můžete nalézt na tomto fóru, nejsou umístěny na tomto serveru. Autoři stránky nenesou zodpovědnost za příspěvky odeslané užívateli,ani za jejich další akce,které by mohli vést k porušování zákonů. Za své příspěvky zodpovídají uživatelé. Nepoužívejte tyto stránky k distribuci a nebo k downloadu jakýchkoliv materiálů, ke kterým nemáte legální oprávnění a nebo licenci ::..