Vítejte na stránkách . Klikněte zde pro registraci

Uživatelské jméno:   Heslo:   Pamätat si ma  Skrýt můj online stav 
Registrovat    Přihlásit se    Fórum    Hledat    FAQ
Bannery     Kontakt   


Informační Panel

:welcome:




www.centralwar.eu
www.centralwar.eu

Obsah fóra » Filmy download » HD filmy a jiné » HD filmy cz/sk




Odeslat nové téma Odpovědět na téma  [ Příspěvků: 3 ] 
Autor Zpráva
 Předmět příspěvku: Zoolander No. 2 / Zoolander No. 2 (2016)
 Příspěvek Napsal: 14 čer 2016, 16:39 
Offline
Registrovaní uživatelé

Registrován: 25 srp 2015, 12:35
ID Užívateľa: 65550

Online: 17d 14h 34m 56s
Poďakoval: 0 x
Obdržal: 4 x


Částka:
32,119.75



Karma: 5


Zoolander No. 2 / Zoolander 2 (2016)

Pouze Registrovaní uživatelé mohou prohlížet odkazy v tagu code! Registrujte se anebo se Přihlašte na fórum.


Obrázek

Release: Zoolander.2.2016.1080p.BluRay.x264.DTS-HD.MA.7.1-RARBG
Jazyk: CZ AC3 2.0, EN DTS-HD MA 5.1
Titulky: CZ-forced, EN, FR, ES, PT

MediaInfo
Pouze Registrovaní uživatelé mohou prohlížet odkazy v tagu code! Registrujte se anebo se Přihlašte na fórum.


Ulozto 6x2GB
Pouze Registrovaní uživatelé mohou prohlížet odkazy v tagu code! Registrujte se anebo se Přihlašte na fórum.


Naposledy upravil Stanley dne 14 čer 2018, 17:50, celkově upraveno 1
Smazány mrtvé linky


Nahoru 
 Profil  
 
 Předmět příspěvku: Zoolander No. 2 / Zoolander No. 2 (2016)
 Příspěvek Napsal: 10 črc 2016, 12:45 
Offline
Superuploader

Registrován: 28 lis 2008, 21:03
ID Užívateľa: 22283

Online: 26d 17h 4m 33s
Poďakoval: 0 x
Obdržal: 3 x


Částka:
42,212.95



Karma: 3



Medals: 3
Zoolander No. 2 / Zoolander No. 2 (2016)

Zoolander.2.2016.720p.BluRay.x264.DTS.EN.AC3.CZ-DRONES
Zoolander.2.2016.1080p.BluRay.DTS.x264-HiFi.CZ-FTU

Obrázek
CSFD
Pouze Registrovaní uživatelé mohou prohlížet odkazy v tagu code! Registrujte se anebo se Přihlašte na fórum.


Zoolander.2.2016.720p.BluRay.x264.DTS.EN.AC3.CZ-DRONES
Jazyk : CZ 5.1 AC3 / EN 5.1 DTS
Titulky : CZ / CZ forced

MediaInfo
Pouze Registrovaní uživatelé mohou prohlížet odkazy v tagu code! Registrujte se anebo se Přihlašte na fórum.

Fastshare
Pouze Registrovaní uživatelé mohou prohlížet odkazy v tagu code! Registrujte se anebo se Přihlašte na fórum.

No Pass


Naposledy upravil Stanley dne 14 čer 2018, 17:51, celkově upraveno 1
Smazány mrtvé linky


Nahoru 
 Profil  
 
 Předmět příspěvku: Zoolander No. 2 / Zoolander No. 2 (2016)
 Příspěvek Napsal: 14 čer 2018, 14:26 
Offline
Registrovaní uživatelé

Registrován: 27 led 2016, 20:28
ID Užívateľa: 65951

Online: 5d 2h 59m 10s
Poďakoval: 0 x
Obdržal: 0 x


Částka:
1,928.05



Karma: 0


Zoolander No.2 (2016)
Video/Zdroj: BluRay 1080p
Audio: CZ 2ch AC-3, EN 8/6ch DTS
Titulky: CZ. EN, FR. ES, PT

Obrázek

Pouze Registrovaní uživatelé mohou prohlížet odkazy v tagu code! Registrujte se anebo se Přihlašte na fórum.


Citace:
Format : Matroska
Format version : Version 4 / Version 2
File size : 11.2 GiB
Duration : 1h 41mn
Overall bit rate : 15.8 Mbps

Video
Format : AVC
Format profile : High@L4.1
Duration : 1h 41mn
Bit rate : 9 252 Kbps
Width : 1 920 pixels
Height : 808 pixels
Display aspect ratio : 2.40:1
Frame rate mode : Constant
Frame rate : 23.976 fps
Color space : YUV
Chroma subsampling : 4:2:0
Bit depth : 8 bits
Scan type : Progressive
Bits/(Pixel*Frame) : 0.249
Stream size : 6.58 GiB (59%)

Audio #1
Format : AC-3
Duration : 1h 41mn
Bit rate mode : Constant
Bit rate : 224 Kbps
Channel(s) : 2 channels
Channel positions : Front: L R
Sampling rate : 48.0 KHz
Frame rate : 31.250 fps (1536 spf)
Compression mode : Lossy
Stream size : 163 MiB (1%)
Language : Czech
Default : No
Forced : No

Audio #2
Format : DTS
Duration : 1h 41mn
Bit rate mode : Variable / Constant
Bit rate : 6 240 Kbps / 1 509 Kbps
Channel(s) : 8 channels / 6 channels
Channel positions : Front: L C R, Side: L R, Back: L R, LFE / Front: L C R, Side: L R, LFE
Sampling rate : 48.0 KHz
Frame rate : 93.750 fps (512 spf)
Bit depth : 24 bits
Compression mode : Lossless / Lossy
Delay relative to video : 1s 1ms
Stream size : 4.44 GiB (40%)
Language : English
Default : Yes
Forced : No

Text #1
Format : UTF-8
Language : Czech
Default : Yes
Forced : Yes

Text #2
Format : PGS
Language : English
Default : No
Forced : No

Text #3
Format : PGS
Language : English
Default : No
Forced : No

Text #4
Format : PGS
Language : French
Default : No
Forced : No

Text #5
Format : PGS
Language : Spanish
Default : No
Forced : No

Text #6
Format : PGS
Language : Portuguese
Default : No
Forced : No


Pouze Registrovaní uživatelé mohou prohlížet odkazy v tagu code! Registrujte se anebo se Přihlašte na fórum.


Pouze Registrovaní uživatelé mohou prohlížet odkazy v tagu code! Registrujte se anebo se Přihlašte na fórum.


Bez hesla. Balené bez kompresie. Pridaný záznam pre opravu dát 5%.


Nahoru 
 Profil  
 
Zobrazit příspěvky za předchozí:  Seřadit podle  
 
Odeslat nové téma Odpovědět na téma  [ Příspěvků: 3 ] 

Obsah fóra » Filmy download » HD filmy a jiné » HD filmy cz/sk


 
Nemůžete zakládat nová témata v tomto fóru
Nemůžete odpovídat v tomto fóru
Nemůžete upravovat své příspěvky v tomto fóru
Nemůžete mazat své příspěvky v tomto fóru
Nemůžete přikládat soubory v tomto fóru

Hledat:
Přejít na:  







cron
TOPlist
Český překlad – phpBB.cz
Karma functions powered by Karma MOD © 2007, 2009 m157y
phpBB SEO



..:: Žádný ze zobrazených souborů, které můžete nalézt na tomto fóru, nejsou umístěny na tomto serveru. Autoři stránky nenesou zodpovědnost za příspěvky odeslané užívateli,ani za jejich další akce,které by mohli vést k porušování zákonů. Za své příspěvky zodpovídají uživatelé. Nepoužívejte tyto stránky k distribuci a nebo k downloadu jakýchkoliv materiálů, ke kterým nemáte legální oprávnění a nebo licenci ::..